  0
SECTION
  2
HEADER
  9
$ACADVER
  1
AC1015
  9
$ACADMAINTVER
 70
    20
  9
$DWGCODEPAGE
  3
ANSI_932
  9
$INSBASE
 10
0.0
 20
0.0
 30
0.0
  9
$EXTMIN
 10
119.0
 20
4.0
 30
0.0
  9
$EXTMAX
 10
2784.0
 20
2024.0
 30
0.0
  9
$LIMMIN
 10
0.0
 20
0.0
  9
$LIMMAX
 10
29700.0
 20
21000.0
  9
$ORTHOMODE
 70
     1
  9
$REGENMODE
 70
     1
  9
$FILLMODE
 70
     1
  9
$QTEXTMODE
 70
     0
  9
$MIRRTEXT
 70
     1
  9
$LTSCALE
 40
4.0
  9
$ATTMODE
 70
     1
  9
$TEXTSIZE
 40
25.0
  9
$TRACEWID
 40
1.0
  9
$TEXTSTYLE
  7
Standard
  9
$CLAYER
  8
実形
  9
$CELTYPE
  6
ByLayer
  9
$CECOLOR
 62
   256
  9
$CELTSCALE
 40
1.0
  9
$DISPSILH
 70
     0
  9
$DIMSCALE
 40
1.0
  9
$DIMASZ
 40
35.0
  9
$DIMEXO
 40
65.0
  9
$DIMDLI
 40
3.75
  9
$DIMRND
 40
0.0
  9
$DIMDLE
 40
0.0
  9
$DIMEXE
 40
0.0
  9
$DIMTP
 40
0.0
  9
$DIMTM
 40
0.0
  9
$DIMTXT
 40
25.0
  9
$DIMCEN
 40
2.5
  9
$DIMTSZ
 40
0.0
  9
$DIMTOL
 70
     0
  9
$DIMLIM
 70
     0
  9
$DIMTIH
 70
     0
  9
$DIMTOH
 70
     0
  9
$DIMSE1
 70
     0
  9
$DIMSE2
 70
     0
  9
$DIMTAD
 70
     1
  9
$DIMZIN
 70
     8
  9
$DIMBLK
  1
DotSmall
  9
$DIMASO
 70
     1
  9
$DIMSHO
 70
     1
  9
$DIMPOST
  1

  9
$DIMAPOST
  1

  9
$DIMALT
 70
     0
  9
$DIMALTD
 70
     3
  9
$DIMALTF
 40
0.03937007874016
  9
$DIMLFAC
 40
1.0
  9
$DIMTOFL
 70
     1
  9
$DIMTVP
 40
0.0
  9
$DIMTIX
 70
     0
  9
$DIMSOXD
 70
     0
  9
$DIMSAH
 70
     0
  9
$DIMBLK1
  1

  9
$DIMBLK2
  1

  9
$DIMSTYLE
  2
ISO-25
  9
$DIMCLRD
 70
     0
  9
$DIMCLRE
 70
     0
  9
$DIMCLRT
 70
     0
  9
$DIMTFAC
 40
1.0
  9
$DIMGAP
 40
6.25
  9
$DIMJUST
 70
     0
  9
$DIMSD1
 70
     0
  9
$DIMSD2
 70
     0
  9
$DIMTOLJ
 70
     0
  9
$DIMTZIN
 70
     8
  9
$DIMALTZ
 70
     0
  9
$DIMALTTZ
 70
     0
  9
$DIMUPT
 70
     0
  9
$DIMDEC
 70
     2
  9
$DIMTDEC
 70
     2
  9
$DIMALTU
 70
     2
  9
$DIMALTTD
 70
     3
  9
$DIMTXSTY
  7
Standard
  9
$DIMAUNIT
 70
     0
  9
$DIMADEC
 70
     0
  9
$DIMALTRND
 40
0.0
  9
$DIMAZIN
 70
     0
  9
$DIMDSEP
 70
    46
  9
$DIMATFIT
 70
     3
  9
$DIMFRAC
 70
     0
  9
$DIMLDRBLK
  1
Open30
  9
$DIMLUNIT
 70
     2
  9
$DIMLWD
 70
    18
  9
$DIMLWE
 70
    18
  9
$DIMTMOVE
 70
     0
  9
$LUNITS
 70
     2
  9
$LUPREC
 70
     2
  9
$SKETCHINC
 40
1.0
  9
$FILLETRAD
 40
30.0
  9
$AUNITS
 70
     0
  9
$AUPREC
 70
     0
  9
$MENU
  1
.
  9
$ELEVATION
 40
0.0
  9
$PELEVATION
 40
0.0
  9
$THICKNESS
 40
0.0
  9
$LIMCHECK
 70
     1
  9
$CHAMFERA
 40
10.0
  9
$CHAMFERB
 40
10.0
  9
$CHAMFERC
 40
20.0
  9
$CHAMFERD
 40
0.0
  9
$SKPOLY
 70
     0
  9
$TDCREATE
 40
2451673.575802199
  9
$TDUCREATE
 40
2451673.200802199
  9
$TDUPDATE
 40
2458807.487667986
  9
$TDUUPDATE
 40
2458807.112667987
  9
$TDINDWG
 40
0.6470035301
  9
$TDUSRTIMER
 40
0.6470028356
  9
$USRTIMER
 70
     1
  9
$ANGBASE
 50
0.0
  9
$ANGDIR
 70
     0
  9
$PDMODE
 70
     3
  9
$PDSIZE
 40
0.0
  9
$PLINEWID
 40
0.0
  9
$SPLFRAME
 70
     0
  9
$SPLINETYPE
 70
     6
  9
$SPLINESEGS
 70
     8
  9
$HANDSEED
  5
1451
  9
$SURFTAB1
 70
     6
  9
$SURFTAB2
 70
     6
  9
$SURFTYPE
 70
     6
  9
$SURFU
 70
     6
  9
$SURFV
 70
     6
  9
$UCSBASE
  2

  9
$UCSNAME
  2

  9
$UCSORG
 10
0.0
 20
0.0
 30
0.0
  9
$UCSXDIR
 10
1.0
 20
0.0
 30
0.0
  9
$UCSYDIR
 10
0.0
 20
1.0
 30
0.0
  9
$UCSORTHOREF
  2

  9
$UCSORTHOVIEW
 70
     0
  9
$UCSORGTOP
 10
0.0
 20
0.0
 30
0.0
  9
$UCSORGBOTTOM
 10
0.0
 20
0.0
 30
0.0
  9
$UCSORGLEFT
 10
0.0
 20
0.0
 30
0.0
  9
$UCSORGRIGHT
 10
0.0
 20
0.0
 30
0.0
  9
$UCSORGFRONT
 10
0.0
 20
0.0
 30
0.0
  9
$UCSORGBACK
 10
0.0
 20
0.0
 30
0.0
  9
$PUCSBASE
  2

  9
$PUCSNAME
  2

  9
$PUCSORG
 10
0.0
 20
0.0
 30
0.0
  9
$PUCSXDIR
 10
1.0
 20
0.0
 30
0.0
  9
$PUCSYDIR
 10
0.0
 20
1.0
 30
0.0
  9
$PUCSORTHOREF
  2

  9
$PUCSORTHOVIEW
 70
     0
  9
$PUCSORGTOP
 10
0.0
 20
0.0
 30
0.0
  9
$PUCSORGBOTTOM
 10
0.0
 20
0.0
 30
0.0
  9
$PUCSORGLEFT
 10
0.0
 20
0.0
 30
0.0
  9
$PUCSORGRIGHT
 10
0.0
 20
0.0
 30
0.0
  9
$PUCSORGFRONT
 10
0.0
 20
0.0
 30
0.0
  9
$PUCSORGBACK
 10
0.0
 20
0.0
 30
0.0
  9
$USERI1
 70
     0
  9
$USERI2
 70
     0
  9
$USERI3
 70
     0
  9
$USERI4
 70
     0
  9
$USERI5
 70
     0
  9
$USERR1
 40
0.0
  9
$USERR2
 40
0.0
  9
$USERR3
 40
0.0
  9
$USERR4
 40
0.0
  9
$USERR5
 40
0.0
  9
$WORLDVIEW
 70
     1
  9
$SHADEDGE
 70
     3
  9
$SHADEDIF
 70
    70
  9
$TILEMODE
 70
     1
  9
$MAXACTVP
 70
    64
  9
$PINSBASE
 10
0.0
 20
0.0
 30
0.0
  9
$PLIMCHECK
 70
     0
  9
$PEXTMIN
 10
27.8447512626648
 20
20.24591643810271
 30
0.0
  9
$PEXTMAX
 10
250.6027613639831
 20
182.2132479429245
 30
0.0
  9
$PLIMMIN
 10
-3.757080078125
 20
-3.757083177566528
  9
$PLIMMAX
 10
293.2112426757813
 20
206.2162444591522
  9
$UNITMODE
 70
     0
  9
$VISRETAIN
 70
     1
  9
$PLINEGEN
 70
     0
  9
$PSLTSCALE
 70
     1
  9
$TREEDEPTH
 70
  3020
  9
$CMLSTYLE
  2
Standard
  9
$CMLJUST
 70
     0
  9
$CMLSCALE
 40
20.0
  9
$PROXYGRAPHICS
 70
     1
  9
$MEASUREMENT
 70
     1
  9
$CELWEIGHT
370
    -1
  9
$ENDCAPS
280
     0
  9
$JOINSTYLE
280
     0
  9
$LWDISPLAY
290
     0
  9
$INSUNITS
 70
     4
  9
$HYPERLINKBASE
  1

  9
$STYLESHEET
  1

  9
$XEDIT
290
     1
  9
$CEPSNTYPE
380
     0
  9
$PSTYLEMODE
290
     1
  9
$FINGERPRINTGUID
  2
{C8EA1F16-24C9-11D4-9416-CE0A3B32152F}
  9
$VERSIONGUID
  2
{98B10DB2-3D72-49D1-B17A-A26C4AB7A61F}
  9
$EXTNAMES
290
     1
  9
$PSVPSCALE
 40
0.0
  9
$OLESTARTUP
290
     0
  0
ENDSEC
  0
SECTION
  2
CLASSES
  0
CLASS
  1
ACDBDICTIONARYWDFLT
  2
AcDbDictionaryWithDefault
  3
ObjectDBX Classes
 90
        0
280
     0
281
     0
  0
CLASS
  1
ACDBPLACEHOLDER
  2
AcDbPlaceHolder
  3
ObjectDBX Classes
 90
        0
280
     0
281
     0
  0
CLASS
  1
LAYOUT
  2
AcDbLayout
  3
ObjectDBX Classes
 90
        0
280
     0
281
     0
  0
CLASS
  1
TABLESTYLE
  2
AcDbTableStyle
  3
ObjectDBX Classes
 90
     2047
280
     0
281
     0
  0
CLASS
  1
DICTIONARYVAR
  2
AcDbDictionaryVar
  3
ObjectDBX Classes
 90
        0
280
     0
281
     0
  0
CLASS
  1
SORTENTSTABLE
  2
AcDbSortentsTable
  3
ObjectDBX Classes
 90
        0
280
     0
281
     0
  0
ENDSEC
  0
SECTION
  2
TABLES
  0
TABLE
  2
VPORT
  5
8
330
0
100
AcDbSymbolTable
 70
     2
  0
VPORT
  5
1444
330
8
100
AcDbSymbolTableRecord
100
AcDbViewportTableRecord
  2
*Active
 70
     0
 10
0.0
 20
0.0
 11
1.0
 21
1.0
 12
1467.554641084481
 22
1135.417893876174
 13
0.0
 23
0.0
 14
10.0
 24
10.0
 15
10.0
 25
10.0
 16
0.0
 26
0.0
 36
1.0
 17
0.0
 27
0.0
 37
0.0
 40
2463.443868349211
 41
1.29038112522686
 42
50.0
 43
0.0
 44
0.0
 50
0.0
 51
0.0
 71
     0
 72
   100
 73
     1
 74
     3
 75
     0
 76
     0
 77
     0
 78
     0
281
     0
 65
     1
110
0.0
120
0.0
130
0.0
111
1.0
121
0.0
131
0.0
112
0.0
122
1.0
132
0.0
 79
     0
146
0.0
  0
ENDTAB
  0
TABLE
  2
LTYPE
  5
5
330
0
100
AcDbSymbolTable
 70
    46
  0
LTYPE
  5
14
330
5
100
AcDbSymbolTableRecord
100
AcDbLinetypeTableRecord
  2
ByBlock
 70
     0
  3

 72
    65
 73
     0
 40
0.0
  0
LTYPE
  5
15
330
5
100
AcDbSymbolTableRecord
100
AcDbLinetypeTableRecord
  2
ByLayer
 70
     0
  3

 72
    65
 73
     0
 40
0.0
  0
LTYPE
  5
16
330
5
100
AcDbSymbolTableRecord
100
AcDbLinetypeTableRecord
  2
Continuous
 70
     0
  3
Solid line
 72
    65
 73
     0
 40
0.0
  0
LTYPE
  5
34
330
5
100
AcDbSymbolTableRecord
100
AcDbLinetypeTableRecord
  2
ACAD_ISO02W100
 70
     0
  3
ISO dash __ __ __ __ __ __ __ __ __ __ __ __ __
 72
    65
 73
     2
 40
15.0
 49
12.0
 74
     0
 49
-3.0
 74
     0
  0
LTYPE
  5
35
330
5
100
AcDbSymbolTableRecord
100
AcDbLinetypeTableRecord
  2
ACAD_ISO03W100
 70
     0
  3
ISO dash space __    __    __    __    __    __
 72
    65
 73
     2
 40
30.0
 49
12.0
 74
     0
 49
-18.0
 74
     0
  0
LTYPE
  5
36
330
5
100
AcDbSymbolTableRecord
100
AcDbLinetypeTableRecord
  2
ACAD_ISO04W100
 70
     0
  3
ISO long-dash dot ____ . ____ . ____ . ____ . _
 72
    65
 73
     4
 40
30.0
 49
24.0
 74
     0
 49
-3.0
 74
     0
 49
0.0
 74
     0
 49
-3.0
 74
     0
  0
LTYPE
  5
37
330
5
100
AcDbSymbolTableRecord
100
AcDbLinetypeTableRecord
  2
ACAD_ISO05W100
 70
     0
  3
ISO long-dash double-dot ____ .. ____ .. ____ .
 72
    65
 73
     6
 40
34.0
 49
24.0
 74
     0
 49
-3.0
 74
     0
 49
0.5
 74
     0
 49
-3.0
 74
     0
 49
0.5
 74
     0
 49
-3.0
 74
     0
  0
LTYPE
  5
38
330
5
100
AcDbSymbolTableRecord
100
AcDbLinetypeTableRecord
  2
ACAD_ISO06W100
 70
     0
  3
ISO long-dash triple-dot ____ ... ____ ... ____
 72
    65
 73
     8
 40
37.5
 49
24.0
 74
     0
 49
-3.0
 74
     0
 49
0.5
 74
     0
 49
-3.0
 74
     0
 49
0.5
 74
     0
 49
-3.0
 74
     0
 49
0.5
 74
     0
 49
-3.0
 74
     0
  0
LTYPE
  5
39
330
5
100
AcDbSymbolTableRecord
100
AcDbLinetypeTableRecord
  2
ACAD_ISO07W100
 70
     0
  3
ISO dot . . . . . . . . . . . . . . . . . . . .
 72
    65
 73
     2
 40
3.0
 49
0.0
 74
     0
 49
-3.0
 74
     0
  0
LTYPE
  5
3A
330
5
100
AcDbSymbolTableRecord
100
AcDbLinetypeTableRecord
  2
ACAD_ISO08W100
 70
     0
  3
ISO long-dash short-dash ____ __ ____ __ ____ _
 72
    65
 73
     4
 40
36.0
 49
24.0
 74
     0
 49
-3.0
 74
     0
 49
6.0
 74
     0
 49
-3.0
 74
     0
  0
LTYPE
  5
3B
330
5
100
AcDbSymbolTableRecord
100
AcDbLinetypeTableRecord
  2
ACAD_ISO09W100
 70
     0
  3
ISO long-dash double-short-dash ____ __ __ ____
 72
    65
 73
     6
 40
45.0
 49
24.0
 74
     0
 49
-3.0
 74
     0
 49
6.0
 74
     0
 49
-3.0
 74
     0
 49
6.0
 74
     0
 49
-3.0
 74
     0
  0
LTYPE
  5
3C
330
5
100
AcDbSymbolTableRecord
100
AcDbLinetypeTableRecord
  2
ACAD_ISO10W100
 70
     0
  3
ISO dash dot __ . __ . __ . __ . __ . __ . __ .
 72
    65
 73
     4
 40
18.0
 49
12.0
 74
     0
 49
-3.0
 74
     0
 49
0.0
 74
     0
 49
-3.0
 74
     0
  0
LTYPE
  5
3D
330
5
100
AcDbSymbolTableRecord
100
AcDbLinetypeTableRecord
  2
ACAD_ISO11W100
 70
     0
  3
ISO double-dash dot __ __ . __ __ . __ __ . __ 
 72
    65
 73
     6
 40
33.0
 49
12.0
 74
     0
 49
-3.0
 74
     0
 49
12.0
 74
     0
 49
-3.0
 74
     0
 49
0.0
 74
     0
 49
-3.0
 74
     0
  0
LTYPE
  5
3E
330
5
100
AcDbSymbolTableRecord
100
AcDbLinetypeTableRecord
  2
ACAD_ISO12W100
 70
     0
  3
ISO dash double-dot __ . . __ . . __ . . __ . .
 72
    65
 73
     6
 40
21.0
 49
12.0
 74
     0
 49
-3.0
 74
     0
 49
0.0
 74
     0
 49
-3.0
 74
     0
 49
0.0
 74
     0
 49
-3.0
 74
     0
  0
LTYPE
  5
3F
330
5
100
AcDbSymbolTableRecord
100
AcDbLinetypeTableRecord
  2
ACAD_ISO13W100
 70
     0
  3
ISO double-dash double-dot __ __ . . __ __ . . 
 72
    65
 73
     8
 40
36.0
 49
12.0
 74
     0
 49
-3.0
 74
     0
 49
12.0
 74
     0
 49
-3.0
 74
     0
 49
0.0
 74
     0
 49
-3.0
 74
     0
 49
0.0
 74
     0
 49
-3.0
 74
     0
  0
LTYPE
  5
40
330
5
100
AcDbSymbolTableRecord
100
AcDbLinetypeTableRecord
  2
ACAD_ISO14W100
 70
     0
  3
ISO dash triple-dot __ . . . __ . . . __ . . . 
 72
    65
 73
     8
 40
24.0
 49
12.0
 74
     0
 49
-3.0
 74
     0
 49
0.0
 74
     0
 49
-3.0
 74
     0
 49
0.0
 74
     0
 49
-3.0
 74
     0
 49
0.0
 74
     0
 49
-3.0
 74
     0
  0
LTYPE
  5
41
330
5
100
AcDbSymbolTableRecord
100
AcDbLinetypeTableRecord
  2
ACAD_ISO15W100
 70
     0
  3
ISO double-dash triple-dot __ __ . . . __ __ . 
 72
    65
 73
    10
 40
39.0
 49
12.0
 74
     0
 49
-3.0
 74
     0
 49
12.0
 74
     0
 49
-3.0
 74
     0
 49
0.0
 74
     0
 49
-3.0
 74
     0
 49
0.0
 74
     0
 49
-3.0
 74
     0
 49
0.0
 74
     0
 49
-3.0
 74
     0
  0
LTYPE
  5
42
330
5
100
AcDbSymbolTableRecord
100
AcDbLinetypeTableRecord
  2
BATTING
 70
     0
  3
Batting SSSSSSSSSSSSSSSSSSSSSSSSSSSSSSSSSSSSSSS
 72
    65
 73
     4
 40
10.16254
 49
0.00254
 74
     0
 49
-2.54
 74
     4
 75
   134
340
33
 46
2.54
 50
0.0
 44
-2.54
 45
0.0
 49
-5.08
 74
     4
 75
   134
340
33
 46
2.54
 50
180.0
 44
2.54
 45
0.0
 49
-2.54
 74
     0
  0
LTYPE
  5
43
330
5
100
AcDbSymbolTableRecord
100
AcDbLinetypeTableRecord
  2
BORDER
 70
     0
  3
Border __ __ . __ __ . __ __ . __ __ . __ __ .
 72
    65
 73
     6
 40
44.45
 49
12.7
 74
     0
 49
-6.349999999999999
 74
     0
 49
12.7
 74
     0
 49
-6.349999999999999
 74
     0
 49
0.0
 74
     0
 49
-6.349999999999999
 74
     0
  0
LTYPE
  5
44
330
5
100
AcDbSymbolTableRecord
100
AcDbLinetypeTableRecord
  2
BORDER2
 70
     0
  3
Border (.5x) __.__.__.__.__.__.__.__.__.__.__.
 72
    65
 73
     6
 40
22.225
 49
6.349999999999999
 74
     0
 49
-3.174999999999999
 74
     0
 49
6.349999999999999
 74
     0
 49
-3.174999999999999
 74
     0
 49
0.0
 74
     0
 49
-3.174999999999999
 74
     0
  0
LTYPE
  5
45
330
5
100
AcDbSymbolTableRecord
100
AcDbLinetypeTableRecord
  2
BORDERX2
 70
     0
  3
Border (2x) ____  ____  .  ____  ____  .  ___
 72
    65
 73
     6
 40
88.9
 49
25.4
 74
     0
 49
-12.7
 74
     0
 49
25.4
 74
     0
 49
-12.7
 74
     0
 49
0.0
 74
     0
 49
-12.7
 74
     0
  0
LTYPE
  5
46
330
5
100
AcDbSymbolTableRecord
100
AcDbLinetypeTableRecord
  2
CENTER
 70
     0
  3
Center ____ _ ____ _ ____ _ ____ _ ____ _ ____
 72
    65
 73
     4
 40
50.8
 49
31.75
 74
     0
 49
-6.349999999999999
 74
     0
 49
6.349999999999999
 74
     0
 49
-6.349999999999999
 74
     0
  0
LTYPE
  5
47
330
5
100
AcDbSymbolTableRecord
100
AcDbLinetypeTableRecord
  2
CENTER2
 70
     0
  3
Center (.5x) ___ _ ___ _ ___ _ ___ _ ___ _ ___
 72
    65
 73
     4
 40
28.575
 49
19.05
 74
     0
 49
-3.174999999999999
 74
     0
 49
3.174999999999999
 74
     0
 49
-3.174999999999999
 74
     0
  0
LTYPE
  5
48
330
5
100
AcDbSymbolTableRecord
100
AcDbLinetypeTableRecord
  2
CENTERX2
 70
     0
  3
Center (2x) ________  __  ________  __  _____
 72
    65
 73
     4
 40
101.6
 49
63.5
 74
     0
 49
-12.7
 74
     0
 49
12.7
 74
     0
 49
-12.7
 74
     0
  0
LTYPE
  5
49
330
5
100
AcDbSymbolTableRecord
100
AcDbLinetypeTableRecord
  2
DASHDOT
 70
     0
  3
Dash dot __ . __ . __ . __ . __ . __ . __ . __
 72
    65
 73
     4
 40
25.4
 49
12.7
 74
     0
 49
-6.349999999999999
 74
     0
 49
0.0
 74
     0
 49
-6.349999999999999
 74
     0
  0
LTYPE
  5
4A
330
5
100
AcDbSymbolTableRecord
100
AcDbLinetypeTableRecord
  2
DASHDOT2
 70
     0
  3
Dash dot (.5x) _._._._._._._._._._._._._._._.
 72
    65
 73
     4
 40
12.7
 49
6.349999999999999
 74
     0
 49
-3.174999999999999
 74
     0
 49
0.0
 74
     0
 49
-3.174999999999999
 74
     0
  0
LTYPE
  5
4B
330
5
100
AcDbSymbolTableRecord
100
AcDbLinetypeTableRecord
  2
DASHDOTX2
 70
     0
  3
Dash dot (2x) ____  .  ____  .  ____  .  ___
 72
    65
 73
     4
 40
50.8
 49
25.4
 74
     0
 49
-12.7
 74
     0
 49
0.0
 74
     0
 49
-12.7
 74
     0
  0
LTYPE
  5
4C
330
5
100
AcDbSymbolTableRecord
100
AcDbLinetypeTableRecord
  2
DASHED
 70
     0
  3
Dashed __ __ __ __ __ __ __ __ __ __ __ __ __ _
 72
    65
 73
     2
 40
19.05
 49
12.7
 74
     0
 49
-6.349999999999999
 74
     0
  0
LTYPE
  5
4D
330
5
100
AcDbSymbolTableRecord
100
AcDbLinetypeTableRecord
  2
DASHED2
 70
     0
  3
Dashed (.5x) _ _ _ _ _ _ _ _ _ _ _ _ _ _ _ _ _
 72
    65
 73
     2
 40
9.524999999999998
 49
6.349999999999999
 74
     0
 49
-3.174999999999999
 74
     0
  0
LTYPE
  5
4E
330
5
100
AcDbSymbolTableRecord
100
AcDbLinetypeTableRecord
  2
DASHEDX2
 70
     0
  3
Dashed (2x) ____  ____  ____  ____  ____  ___
 72
    65
 73
     2
 40
38.1
 49
25.4
 74
     0
 49
-12.7
 74
     0
  0
LTYPE
  5
4F
330
5
100
AcDbSymbolTableRecord
100
AcDbLinetypeTableRecord
  2
DIVIDE
 70
     0
  3
Divide ____ . . ____ . . ____ . . ____ . . ____
 72
    65
 73
     6
 40
31.75
 49
12.7
 74
     0
 49
-6.349999999999999
 74
     0
 49
0.0
 74
     0
 49
-6.349999999999999
 74
     0
 49
0.0
 74
     0
 49
-6.349999999999999
 74
     0
  0
LTYPE
  5
50
330
5
100
AcDbSymbolTableRecord
100
AcDbLinetypeTableRecord
  2
DIVIDE2
 70
     0
  3
Divide (.5x) __..__..__..__..__..__..__..__.._
 72
    65
 73
     6
 40
15.875
 49
6.349999999999999
 74
     0
 49
-3.174999999999999
 74
     0
 49
0.0
 74
     0
 49
-3.174999999999999
 74
     0
 49
0.0
 74
     0
 49
-3.174999999999999
 74
     0
  0
LTYPE
  5
51
330
5
100
AcDbSymbolTableRecord
100
AcDbLinetypeTableRecord
  2
DIVIDEX2
 70
     0
  3
Divide (2x) ________  .  .  ________  .  .  _
 72
    65
 73
     6
 40
63.49999999999999
 49
25.4
 74
     0
 49
-12.7
 74
     0
 49
0.0
 74
     0
 49
-12.7
 74
     0
 49
0.0
 74
     0
 49
-12.7
 74
     0
  0
LTYPE
  5
52
330
5
100
AcDbSymbolTableRecord
100
AcDbLinetypeTableRecord
  2
DOT
 70
     0
  3
Dot . . . . . . . . . . . . . . . . . . . . . .
 72
    65
 73
     2
 40
6.349999999999999
 49
0.0
 74
     0
 49
-6.349999999999999
 74
     0
  0
LTYPE
  5
53
330
5
100
AcDbSymbolTableRecord
100
AcDbLinetypeTableRecord
  2
DOT2
 70
     0
  3
Dot (.5x) .....................................
 72
    65
 73
     2
 40
3.174999999999999
 49
0.0
 74
     0
 49
-3.174999999999999
 74
     0
  0
LTYPE
  5
54
330
5
100
AcDbSymbolTableRecord
100
AcDbLinetypeTableRecord
  2
DOTX2
 70
     0
  3
Dot (2x) .  .  .  .  .  .  .  .  .  .  .  .  . 
 72
    65
 73
     2
 40
12.7
 49
0.0
 74
     0
 49
-12.7
 74
     0
  0
LTYPE
  5
55
330
5
100
AcDbSymbolTableRecord
100
AcDbLinetypeTableRecord
  2
FENCELINE1
 70
     0
  3
Fenceline circle ----0-----0----0-----0----0---
 72
    65
 73
     4
 40
36.83
 49
6.349999999999999
 74
     0
 49
-2.54
 74
     4
 75
   133
340
33
 46
2.54
 50
0.0
 44
-2.54
 45
0.0
 49
-2.54
 74
     0
 49
25.4
 74
     0
  0
LTYPE
  5
56
330
5
100
AcDbSymbolTableRecord
100
AcDbLinetypeTableRecord
  2
FENCELINE2
 70
     0
  3
Fenceline square ----[]-----[]----[]-----[]----
 72
    65
 73
     4
 40
36.83
 49
6.349999999999999
 74
     0
 49
-2.54
 74
     4
 75
   132
340
33
 46
2.54
 50
0.0
 44
-2.54
 45
0.0
 49
-2.54
 74
     0
 49
25.4
 74
     0
  0
LTYPE
  5
57
330
5
100
AcDbSymbolTableRecord
100
AcDbLinetypeTableRecord
  2
GAS_LINE
 70
     0
  3
Gas line ----GAS----GAS----GAS----GAS----GAS---
 72
    65
 73
     3
 40
24.13
 49
12.7
 74
     0
 49
-5.08
 74
     2
 75
     0
340
11
 46
2.54
 50
0.0
 44
-2.54
 45
-1.27
  9
GAS
 49
-6.349999999999999
 74
     0
  0
LTYPE
  5
58
330
5
100
AcDbSymbolTableRecord
100
AcDbLinetypeTableRecord
  2
HIDDEN
 70
     0
  3
Hidden __ __ __ __ __ __ __ __ __ __ __ __ __ _
 72
    65
 73
     2
 40
9.524999999999998
 49
6.349999999999999
 74
     0
 49
-3.174999999999999
 74
     0
  0
LTYPE
  5
59
330
5
100
AcDbSymbolTableRecord
100
AcDbLinetypeTableRecord
  2
HIDDEN2
 70
     0
  3
Hidden (.5x) _ _ _ _ _ _ _ _ _ _ _ _ _ _ _ _ _
 72
    65
 73
     2
 40
4.762499999999999
 49
3.174999999999999
 74
     0
 49
-1.587499999999999
 74
     0
  0
LTYPE
  5
5A
330
5
100
AcDbSymbolTableRecord
100
AcDbLinetypeTableRecord
  2
HIDDENX2
 70
     0
  3
Hidden (2x) ____ ____ ____ ____ ____ ____ ____
 72
    65
 73
     2
 40
19.05
 49
12.7
 74
     0
 49
-6.349999999999999
 74
     0
  0
LTYPE
  5
5B
330
5
100
AcDbSymbolTableRecord
100
AcDbLinetypeTableRecord
  2
HOT_WATER_SUPPLY
 70
     0
  3
Hot water supply ---- HW ---- HW ---- HW ----
 72
    65
 73
     3
 40
22.86
 49
12.7
 74
     0
 49
-5.08
 74
     2
 75
     0
340
11
 46
2.54
 50
0.0
 44
-2.54
 45
-1.27
  9
HW
 49
-5.08
 74
     0
  0
LTYPE
  5
5C
330
5
100
AcDbSymbolTableRecord
100
AcDbLinetypeTableRecord
  2
PHANTOM
 70
     0
  3
Phantom ______  __  __  ______  __  __  ______
 72
    65
 73
     6
 40
63.5
 49
31.75
 74
     0
 49
-6.349999999999999
 74
     0
 49
6.349999999999999
 74
     0
 49
-6.349999999999999
 74
     0
 49
6.349999999999999
 74
     0
 49
-6.349999999999999
 74
     0
  0
LTYPE
  5
5D
330
5
100
AcDbSymbolTableRecord
100
AcDbLinetypeTableRecord
  2
PHANTOM2
 70
     0
  3
Phantom (.5x) ___ _ _ ___ _ _ ___ _ _ ___ _ _
 72
    65
 73
     6
 40
31.75
 49
15.875
 74
     0
 49
-3.174999999999999
 74
     0
 49
3.174999999999999
 74
     0
 49
-3.174999999999999
 74
     0
 49
3.174999999999999
 74
     0
 49
-3.174999999999999
 74
     0
  0
LTYPE
  5
5E
330
5
100
AcDbSymbolTableRecord
100
AcDbLinetypeTableRecord
  2
PHANTOMX2
 70
     0
  3
Phantom (2x) ____________    ____    ____   _
 72
    65
 73
     6
 40
127.0
 49
63.5
 74
     0
 49
-12.7
 74
     0
 49
12.7
 74
     0
 49
-12.7
 74
     0
 49
12.7
 74
     0
 49
-12.7
 74
     0
  0
LTYPE
  5
5F
330
5
100
AcDbSymbolTableRecord
100
AcDbLinetypeTableRecord
  2
TRACKS
 70
     0
  3
Tracks -|-|-|-|-|-|-|-|-|-|-|-|-|-|-|-|-|-|-|-|
 72
    65
 73
     2
 40
7.62
 49
3.81
 74
     4
 75
   130
340
33
 46
6.349999999999999
 50
0.0
 44
0.0
 45
0.0
 49
3.81
 74
     0
  0
LTYPE
  5
60
330
5
100
AcDbSymbolTableRecord
100
AcDbLinetypeTableRecord
  2
ZIGZAG
 70
     0
  3
Zig zag /\/\/\/\/\/\/\/\/\/\/\/\/\/\/\/\/\/\/\/
 72
    65
 73
     4
 40
20.32254
 49
0.00254
 74
     0
 49
-5.08
 74
     4
 75
   131
340
33
 46
5.08
 50
0.0
 44
-5.08
 45
0.0
 49
-10.16
 74
     4
 75
   131
340
33
 46
5.08
 50
180.0
 44
5.08
 45
0.0
 49
-5.08
 74
     0
  0
ENDTAB
  0
TABLE
  2
LAYER
  5
2
102
{ACAD_XDICTIONARY
360
13A2
102
}
330
0
100
AcDbSymbolTable
 70
     9
  0
LAYER
  5
10
330
2
100
AcDbSymbolTableRecord
100
AcDbLayerTableRecord
  2
0
 70
     0
 62
     7
  6
Continuous
370
    -3
390
F
  0
LAYER
  5
C3
330
2
100
AcDbSymbolTableRecord
100
AcDbLayerTableRecord
  2
Defpoints
 70
     0
 62
     7
  6
Continuous
290
     0
370
    -3
390
F
  0
LAYER
  5
256
330
2
100
AcDbSymbolTableRecord
100
AcDbLayerTableRecord
  2
センター
 70
     0
 62
     7
  6
CENTER2
370
    18
390
F
  0
LAYER
  5
268
330
2
100
AcDbSymbolTableRecord
100
AcDbLayerTableRecord
  2
実形
 70
     0
 62
     7
  6
Continuous
370
    -3
390
F
  0
LAYER
  5
269
330
2
100
AcDbSymbolTableRecord
100
AcDbLayerTableRecord
  2
補助
 70
     0
 62
     7
  6
Continuous
370
    -3
390
F
  0
LAYER
  5
26A
330
2
100
AcDbSymbolTableRecord
100
AcDbLayerTableRecord
  2
寸法
 70
     0
 62
     7
  6
Continuous
370
    18
390
F
  0
LAYER
  5
26B
330
2
100
AcDbSymbolTableRecord
100
AcDbLayerTableRecord
  2
ハッチング
 70
     0
 62
     7
  6
Continuous
370
    18
390
F
  0
LAYER
  5
26D
330
2
100
AcDbSymbolTableRecord
100
AcDbLayerTableRecord
  2
文字
 70
     0
 62
     7
  6
Continuous
370
    -3
390
F
  0
LAYER
  5
114D
330
2
100
AcDbSymbolTableRecord
100
AcDbLayerTableRecord
  2
Cen
 70
     0
 62
     7
  6
CENTER2
370
    15
390
F
  0
ENDTAB
  0
TABLE
  2
STYLE
  5
3
330
0
100
AcDbSymbolTable
 70
     4
  0
STYLE
  5
11
330
3
100
AcDbSymbolTableRecord
100
AcDbTextStyleTableRecord
  2
Standard
 70
     0
 40
0.0
 41
1.0
 50
0.0
 71
     0
 42
25.0
  3
txt.shx
  4
bigfont.shx
  0
STYLE
  5
33
330
3
100
AcDbSymbolTableRecord
100
AcDbTextStyleTableRecord
  2

 70
     1
 40
0.0
 41
1.0
 50
0.0
 71
     0
 42
2.5
  3
ltypeshp.shx
  4

  0
STYLE
  5
13CE
330
3
100
AcDbSymbolTableRecord
100
AcDbTextStyleTableRecord
  2
ms明朝
 70
     0
 40
0.0
 41
1.0
 50
0.0
 71
     0
 42
25.0
  3
MS Mincho.ttf
  4

1001
ACAD
1000
MS Mincho
1071
    32785
  0
STYLE
  5
13EA
330
3
100
AcDbSymbolTableRecord
100
AcDbTextStyleTableRecord
  2
明朝
 70
     0
 40
0.0
 41
1.0
 50
0.0
 71
     0
 42
25.0
  3
MS Mincho.ttf
  4

1001
ACAD
1000
MS Mincho
1071
    32785
  0
ENDTAB
  0
TABLE
  2
VIEW
  5
6
330
0
100
AcDbSymbolTable
 70
     0
  0
ENDTAB
  0
TABLE
  2
UCS
  5
7
330
0
100
AcDbSymbolTable
 70
     0
  0
ENDTAB
  0
TABLE
  2
APPID
  5
9
330
0
100
AcDbSymbolTable
 70
     2
  0
APPID
  5
12
330
9
100
AcDbSymbolTableRecord
100
AcDbRegAppTableRecord
  2
ACAD
 70
     0
  0
APPID
  5
13EB
330
9
100
AcDbSymbolTableRecord
100
AcDbRegAppTableRecord
  2
ACAD_PSEXT
 70
     0
  0
ENDTAB
  0
TABLE
  2
DIMSTYLE
  5
A
330
0
100
AcDbSymbolTable
 70
     1
100
AcDbDimStyleTable
 71
     1
340
27
  0
DIMSTYLE
105
27
102
{ACAD_REACTORS
330
368
330
44B
330
458
330
4A3
330
569
330
57F
330
35B
330
3CE
330
43D
330
3E9
330
3DC
330
3F6
330
4F8
330
505
330
1295
330
1296
102
}
330
A
100
AcDbSymbolTableRecord
100
AcDbDimStyleTableRecord
  2
ISO-25
 70
     0
 41
35.0
 42
65.0
 43
3.75
 44
0.0
 73
     0
 74
     0
 77
     1
 78
     8
140
25.0
141
2.5
143
0.03937007874016
147
6.25
171
     3
172
     1
271
     2
272
     2
274
     3
283
     0
284
     8
340
11
341
DA
342
D0
371
    15
372
    15
  0
ENDTAB
  0
TABLE
  2
BLOCK_RECORD
  5
1
330
0
100
AcDbSymbolTable
 70
    22
  0
BLOCK_RECORD
  5
1F
102
{ACAD_XDICTIONARY
360
13DD
102
}
330
1
100
AcDbSymbolTableRecord
100
AcDbBlockTableRecord
  2
*Model_Space
340
22
  0
BLOCK_RECORD
  5
1B
330
1
100
AcDbSymbolTableRecord
100
AcDbBlockTableRecord
  2
*Paper_Space
340
1E
  0
BLOCK_RECORD
  5
23
330
1
100
AcDbSymbolTableRecord
100
AcDbBlockTableRecord
  2
*Paper_Space0
340
26
  0
BLOCK_RECORD
  5
D0
330
1
100
AcDbSymbolTableRecord
100
AcDbBlockTableRecord
  2
_DotSmall
340
0
102
{BLKREFS
331
12C8
331
12C9
331
12D1
331
12D2
331
12D9
331
12DA
331
12EB
331
12EC
331
12FD
331
12FE
331
1306
331
1307
331
130E
331
130F
331
1318
331
1319
331
1320
331
1321
331
132A
331
132B
331
1332
331
1333
331
133B
331
133C
331
1343
331
1344
331
134C
331
134D
331
1376
331
1377
331
137F
331
1380
102
}
  0
BLOCK_RECORD
  5
D4
330
1
100
AcDbSymbolTableRecord
100
AcDbBlockTableRecord
  2
_Origin2
340
0
  0
BLOCK_RECORD
  5
DA
330
1
100
AcDbSymbolTableRecord
100
AcDbBlockTableRecord
  2
_Open30
340
0
  0
BLOCK_RECORD
  5
35C
330
1
100
AcDbSymbolTableRecord
100
AcDbBlockTableRecord
  2
*D4
340
0
  0
BLOCK_RECORD
  5
369
330
1
100
AcDbSymbolTableRecord
100
AcDbBlockTableRecord
  2
*D5
340
0
  0
BLOCK_RECORD
  5
3CF
330
1
100
AcDbSymbolTableRecord
100
AcDbBlockTableRecord
  2
*D6
340
0
  0
BLOCK_RECORD
  5
3DD
330
1
100
AcDbSymbolTableRecord
100
AcDbBlockTableRecord
  2
*D7
340
0
  0
BLOCK_RECORD
  5
3EA
330
1
100
AcDbSymbolTableRecord
100
AcDbBlockTableRecord
  2
*D8
340
0
  0
BLOCK_RECORD
  5
3F7
330
1
100
AcDbSymbolTableRecord
100
AcDbBlockTableRecord
  2
*D9
340
0
  0
BLOCK_RECORD
  5
43E
330
1
100
AcDbSymbolTableRecord
100
AcDbBlockTableRecord
  2
*D10
340
0
  0
BLOCK_RECORD
  5
44C
330
1
100
AcDbSymbolTableRecord
100
AcDbBlockTableRecord
  2
*D11
340
0
  0
BLOCK_RECORD
  5
459
330
1
100
AcDbSymbolTableRecord
100
AcDbBlockTableRecord
  2
*D12
340
0
  0
BLOCK_RECORD
  5
4A4
330
1
100
AcDbSymbolTableRecord
100
AcDbBlockTableRecord
  2
*D13
340
0
  0
BLOCK_RECORD
  5
4F9
330
1
100
AcDbSymbolTableRecord
100
AcDbBlockTableRecord
  2
*D14
340
0
  0
BLOCK_RECORD
  5
506
330
1
100
AcDbSymbolTableRecord
100
AcDbBlockTableRecord
  2
*D15
340
0
  0
BLOCK_RECORD
  5
56A
330
1
100
AcDbSymbolTableRecord
100
AcDbBlockTableRecord
  2
*D16
340
0
  0
BLOCK_RECORD
  5
580
330
1
100
AcDbSymbolTableRecord
100
AcDbBlockTableRecord
  2
*D17
340
0
  0
BLOCK_RECORD
  5
129D
330
1
100
AcDbSymbolTableRecord
100
AcDbBlockTableRecord
  2
*D18
340
0
  0
BLOCK_RECORD
  5
12A8
330
1
100
AcDbSymbolTableRecord
100
AcDbBlockTableRecord
  2
*D19
340
0
  0
BLOCK_RECORD
  5
13CF
102
{ACAD_XDICTIONARY
360
13D1
102
}
330
1
100
AcDbSymbolTableRecord
100
AcDbBlockTableRecord
  2
A$C50993744
340
0
  0
BLOCK_RECORD
  5
13D6
102
{ACAD_XDICTIONARY
360
13D8
102
}
330
1
100
AcDbSymbolTableRecord
100
AcDbBlockTableRecord
  2
A$C7EFB5B20
340
0
  0
ENDTAB
  0
ENDSEC
  0
SECTION
  2
BLOCKS
  0
BLOCK
  5
20
330
1F
100
AcDbEntity
  8
0
100
AcDbBlockBegin
  2
*Model_Space
 70
     0
 10
0.0
 20
0.0
 30
0.0
  3
*Model_Space
  1

  0
ENDBLK
  5
21
330
1F
100
AcDbEntity
  8
0
100
AcDbBlockEnd
  0
BLOCK
  5
1C
330
1B
100
AcDbEntity
 67
     1
  8
0
100
AcDbBlockBegin
  2
*Paper_Space
 70
     0
 10
0.0
 20
0.0
 30
0.0
  3
*Paper_Space
  1

  0
ENDBLK
  5
1D
330
1B
100
AcDbEntity
 67
     1
  8
0
100
AcDbBlockEnd
  0
BLOCK
  5
24
330
23
100
AcDbEntity
  8
0
100
AcDbBlockBegin
  2
*Paper_Space0
 70
     0
 10
0.0
 20
0.0
 30
0.0
  3
*Paper_Space0
  1

  0
ENDBLK
  5
25
330
23
100
AcDbEntity
  8
0
100
AcDbBlockEnd
  0
BLOCK
  5
D2
330
D0
100
AcDbEntity
  8
0
100
AcDbBlockBegin
  2
_DotSmall
 70
     0
 10
0.0
 20
0.0
 30
0.0
  3
_DotSmall
  1

  0
LWPOLYLINE
  5
D1
330
D0
100
AcDbEntity
  8
0
 62
     0
100
AcDbPolyline
 90
        2
 70
     1
 43
0.5
 10
-0.0625
 20
0.0
 42
1.0
 10
0.0625
 20
0.0
 42
1.0
  0
ENDBLK
  5
D3
330
D0
100
AcDbEntity
  8
0
100
AcDbBlockEnd
  0
BLOCK
  5
D8
330
D4
100
AcDbEntity
  8
0
100
AcDbBlockBegin
  2
_Origin2
 70
     0
 10
0.0
 20
0.0
 30
0.0
  3
_Origin2
  1

  0
CIRCLE
  5
D5
330
D4
100
AcDbEntity
  8
0
 62
     0
370
    -2
100
AcDbCircle
 10
0.0
 20
0.0
 30
0.0
 40
0.5
  0
CIRCLE
  5
D6
330
D4
100
AcDbEntity
  8
0
 62
     0
370
    -2
100
AcDbCircle
 10
0.0
 20
0.0
 30
0.0
 40
0.25
  0
LINE
  5
D7
330
D4
100
AcDbEntity
  8
0
 62
     0
370
    -2
100
AcDbLine
 10
-0.5
 20
0.0
 30
0.0
 11
-1.0
 21
0.0
 31
0.0
  0
ENDBLK
  5
D9
330
D4
100
AcDbEntity
  8
0
100
AcDbBlockEnd
  0
BLOCK
  5
DE
330
DA
100
AcDbEntity
  8
0
100
AcDbBlockBegin
  2
_Open30
 70
     0
 10
0.0
 20
0.0
 30
0.0
  3
_Open30
  1

  0
LINE
  5
DB
330
DA
100
AcDbEntity
  8
0
 62
     0
370
    -2
100
AcDbLine
 10
-1.0
 20
0.26794919
 30
0.0
 11
0.0
 21
0.0
 31
0.0
  0
LINE
  5
DC
330
DA
100
AcDbEntity
  8
0
 62
     0
370
    -2
100
AcDbLine
 10
0.0
 20
0.0
 30
0.0
 11
-1.0
 21
-0.26794919
 31
0.0
  0
LINE
  5
DD
330
DA
100
AcDbEntity
  8
0
 62
     0
370
    -2
100
AcDbLine
 10
0.0
 20
0.0
 30
0.0
 11
-1.0
 21
0.0
 31
0.0
  0
ENDBLK
  5
DF
330
DA
100
AcDbEntity
  8
0
100
AcDbBlockEnd
  0
BLOCK
  5
366
330
35C
100
AcDbEntity
  8
0
100
AcDbBlockBegin
  2
*D4
 70
     1
 10
0.0
 20
0.0
 30
0.0
  3
*D4
  1

  0
LINE
  5
1349
330
35C
100
AcDbEntity
  8
寸法
 62
     0
370
    15
100
AcDbLine
 10
924.8347009217905
 20
1548.64010564108
 30
0.0
 11
924.8347009217905
 21
1747.162625317523
 31
0.0
  0
LINE
  5
134A
330
35C
100
AcDbEntity
  8
寸法
 62
     0
370
    15
100
AcDbLine
 10
774.8347009217905
 20
1498.359507154115
 30
0.0
 11
774.8347009217905
 21
1747.162625317523
 31
0.0
  0
LINE
  5
134B
330
35C
100
AcDbEntity
  8
寸法
 62
     0
370
    18
100
AcDbLine
 10
924.8347009217905
 20
1747.162625317523
 30
0.0
 11
774.8347009217905
 21
1747.162625317523
 31
0.0
  0
INSERT
  5
134C
330
35C
100
AcDbEntity
  8
寸法
 62
     0
370
    18
100
AcDbBlockReference
  2
_DotSmall
 10
924.8347009217905
 20
1747.162625317523
 30
0.0
 41
25.0
 42
25.0
 43
25.0
  0
INSERT
  5
134D
330
35C
100
AcDbEntity
  8
寸法
 62
     0
370
    18
100
AcDbBlockReference
  2
_DotSmall
 10
774.8347009217905
 20
1747.162625317523
 30
0.0
 41
25.0
 42
25.0
 43
25.0
 50
180.0
  0
MTEXT
  5
134E
330
35C
100
AcDbEntity
  8
寸法
 62
     0
100
AcDbMText
 10
849.8347009217905
 20
1765.912625317523
 30
0.0
 40
25.0
 41
0.0
 71
     5
 72
     1
  1
150
 73
     1
 44
1.0
1001
ACAD
1000
MTEXTBEGIN
1070
    73
1070
     1
1070
    44
1040
1.0
1070
    74
1070
     0
1000
MTEXTEND
  0
POINT
  5
134F
330
35C
100
AcDbEntity
  8
Defpoints
 62
     0
100
AcDbPoint
 10
924.8347009217905
 20
1483.64010564108
 30
0.0
  0
POINT
  5
1350
330
35C
100
AcDbEntity
  8
Defpoints
 62
     0
100
AcDbPoint
 10
774.8347009217905
 20
1433.359507154115
 30
0.0
  0
POINT
  5
1351
330
35C
100
AcDbEntity
  8
Defpoints
 62
     0
100
AcDbPoint
 10
774.8347009217905
 20
1747.162625317523
 30
0.0
  0
ENDBLK
  5
367
330
35C
100
AcDbEntity
  8
0
100
AcDbBlockEnd
  0
BLOCK
  5
373
330
369
100
AcDbEntity
  8
0
100
AcDbBlockBegin
  2
*D5
 70
     1
 10
0.0
 20
0.0
 30
0.0
  3
*D5
  1

  0
LINE
  5
1340
330
369
100
AcDbEntity
  8
寸法
 62
     0
370
    15
100
AcDbLine
 10
1018.374313753725
 20
1433.359507154115
 30
0.0
 11
1049.83470092179
 21
1433.359507154115
 31
0.0
  0
LINE
  5
1341
330
369
100
AcDbEntity
  8
寸法
 62
     0
370
    15
100
AcDbLine
 10
1046.248925009262
 20
1653.359507154115
 30
0.0
 11
1049.83470092179
 21
1653.359507154115
 31
0.0
  0
LINE
  5
1342
330
369
100
AcDbEntity
  8
寸法
 62
     0
370
    18
100
AcDbLine
 10
1049.83470092179
 20
1433.359507154115
 30
0.0
 11
1049.83470092179
 21
1653.359507154115
 31
0.0
  0
INSERT
  5
1343
330
369
100
AcDbEntity
  8
寸法
 62
     0
370
    18
100
AcDbBlockReference
  2
_DotSmall
 10
1049.83470092179
 20
1433.359507154115
 30
0.0
 41
25.0
 42
25.0
 43
25.0
 50
270.0
  0
INSERT
  5
1344
330
369
100
AcDbEntity
  8
寸法
 62
     0
370
    18
100
AcDbBlockReference
  2
_DotSmall
 10
1049.83470092179
 20
1653.359507154115
 30
0.0
 41
25.0
 42
25.0
 43
25.0
 50
90.0
  0
MTEXT
  5
1345
330
369
100
AcDbEntity
  8
寸法
 62
     0
100
AcDbMText
 10
1031.08470092179
 20
1543.359507154115
 30
0.0
 40
25.0
 41
0.0
 71
     5
 72
     1
  1
220
 11
0.0000000000000001
 21
1.0
 31
0.0
 73
     1
 44
1.0
1001
ACAD
1000
MTEXTBEGIN
1070
    73
1070
     1
1070
    44
1040
1.0
1070
    74
1070
     0
1000
MTEXTEND
  0
POINT
  5
1346
330
369
100
AcDbEntity
  8
Defpoints
 62
     0
100
AcDbPoint
 10
953.3743137537248
 20
1433.359507154115
 30
0.0
  0
POINT
  5
1347
330
369
100
AcDbEntity
  8
Defpoints
 62
     0
100
AcDbPoint
 10
1111.248925009262
 20
1653.359507154115
 30
0.0
  0
POINT
  5
1348
330
369
100
AcDbEntity
  8
Defpoints
 62
     0
100
AcDbPoint
 10
1049.83470092179
 20
1653.359507154115
 30
0.0
  0
ENDBLK
  5
374
330
369
100
AcDbEntity
  8
0
100
AcDbBlockEnd
  0
BLOCK
  5
3DA
330
3CF
100
AcDbEntity
  8
0
100
AcDbBlockBegin
  2
*D6
 70
     1
 10
0.0
 20
0.0
 30
0.0
  3
*D6
  1

  0
LINE
  5
1338
330
3CF
100
AcDbEntity
  8
寸法
 62
     0
370
    15
100
AcDbLine
 10
694.8347009217904
 20
1668.359507154115
 30
0.0
 11
616.6593861979172
 21
1668.359507154115
 31
0.0
  0
LINE
  5
1339
330
3CF
100
AcDbEntity
  8
寸法
 62
     0
370
    15
100
AcDbLine
 10
694.8347009217904
 20
1653.359507154115
 30
0.0
 11
616.6593861979172
 21
1653.359507154115
 31
0.0
  0
LINE
  5
133A
330
3CF
100
AcDbEntity
  8
寸法
 62
     0
370
    18
100
AcDbLine
 10
616.6593861979172
 20
1668.359507154115
 30
0.0
 11
616.6593861979172
 21
1653.359507154115
 31
0.0
  0
INSERT
  5
133B
330
3CF
100
AcDbEntity
  8
寸法
 62
     0
370
    18
100
AcDbBlockReference
  2
_DotSmall
 10
616.6593861979172
 20
1668.359507154115
 30
0.0
 41
25.0
 42
25.0
 43
25.0
 50
90.0
  0
INSERT
  5
133C
330
3CF
100
AcDbEntity
  8
寸法
 62
     0
370
    18
100
AcDbBlockReference
  2
_DotSmall
 10
616.6593861979172
 20
1653.359507154115
 30
0.0
 41
25.0
 42
25.0
 43
25.0
 50
270.0
  0
POINT
  5
133D
330
3CF
100
AcDbEntity
  8
Defpoints
 62
     0
100
AcDbPoint
 10
759.8347009217905
 20
1668.359507154115
 30
0.0
  0
POINT
  5
133E
330
3CF
100
AcDbEntity
  8
Defpoints
 62
     0
100
AcDbPoint
 10
759.8347009217905
 20
1653.359507154115
 30
0.0
  0
POINT
  5
133F
330
3CF
100
AcDbEntity
  8
Defpoints
 62
     0
100
AcDbPoint
 10
616.6593861979172
 20
1653.359507154115
 30
0.0
  0
ENDBLK
  5
3DB
330
3CF
100
AcDbEntity
  8
0
100
AcDbBlockEnd
  0
BLOCK
  5
3E7
330
3DD
100
AcDbEntity
  8
0
100
AcDbBlockBegin
  2
*D7
 70
     1
 10
0.0
 20
0.0
 30
0.0
  3
*D7
  1

  0
LINE
  5
132F
330
3DD
100
AcDbEntity
  8
寸法
 62
     0
370
    15
100
AcDbLine
 10
694.8347009217904
 20
1653.359507154115
 30
0.0
 11
616.6593861979173
 21
1653.359507154115
 31
0.0
  0
LINE
  5
1330
330
3DD
100
AcDbEntity
  8
寸法
 62
     0
370
    15
100
AcDbLine
 10
694.8347009217904
 20
1213.359507154115
 30
0.0
 11
616.6593861979172
 21
1213.359507154115
 31
0.0
  0
LINE
  5
1331
330
3DD
100
AcDbEntity
  8
寸法
 62
     0
370
    18
100
AcDbLine
 10
616.6593861979173
 20
1653.359507154115
 30
0.0
 11
616.6593861979172
 21
1213.359507154115
 31
0.0
  0
INSERT
  5
1332
330
3DD
100
AcDbEntity
  8
寸法
 62
     0
370
    18
100
AcDbBlockReference
  2
_DotSmall
 10
616.6593861979173
 20
1653.359507154115
 30
0.0
 41
25.0
 42
25.0
 43
25.0
 50
90.0
  0
INSERT
  5
1333
330
3DD
100
AcDbEntity
  8
寸法
 62
     0
370
    18
100
AcDbBlockReference
  2
_DotSmall
 10
616.6593861979172
 20
1213.359507154115
 30
0.0
 41
25.0
 42
25.0
 43
25.0
 50
270.0
  0
MTEXT
  5
1334
330
3DD
100
AcDbEntity
  8
寸法
 62
     0
100
AcDbMText
 10
597.9093861979171
 20
1433.359507154115
 30
0.0
 40
25.0
 41
0.0
 71
     5
 72
     1
  1
440
 11
0.0000000000000001
 21
1.0
 31
0.0
 73
     1
 44
1.0
1001
ACAD
1000
MTEXTBEGIN
1070
    73
1070
     1
1070
    44
1040
1.0
1070
    74
1070
     0
1000
MTEXTEND
  0
POINT
  5
1335
330
3DD
100
AcDbEntity
  8
Defpoints
 62
     0
100
AcDbPoint
 10
759.8347009217905
 20
1653.359507154115
 30
0.0
  0
POINT
  5
1336
330
3DD
100
AcDbEntity
  8
Defpoints
 62
     0
100
AcDbPoint
 10
759.8347009217905
 20
1213.359507154115
 30
0.0
  0
POINT
  5
1337
330
3DD
100
AcDbEntity
  8
Defpoints
 62
     0
100
AcDbPoint
 10
616.6593861979172
 20
1213.359507154115
 30
0.0
  0
ENDBLK
  5
3E8
330
3DD
100
AcDbEntity
  8
0
100
AcDbBlockEnd
  0
BLOCK
  5
3F4
330
3EA
100
AcDbEntity
  8
0
100
AcDbBlockBegin
  2
*D8
 70
     1
 10
0.0
 20
0.0
 30
0.0
  3
*D8
  1

  0
LINE
  5
1326
330
3EA
100
AcDbEntity
  8
寸法
 62
     0
370
    15
100
AcDbLine
 10
694.8347009217904
 20
1213.359507154115
 30
0.0
 11
616.6593861979172
 21
1213.359507154115
 31
0.0
  0
LINE
  5
1327
330
3EA
100
AcDbEntity
  8
寸法
 62
     0
370
    15
100
AcDbLine
 10
694.8347009217904
 20
1198.359507154115
 30
0.0
 11
616.6593861979172
 21
1198.359507154115
 31
0.0
  0
LINE
  5
1328
330
3EA
100
AcDbEntity
  8
寸法
 62
     0
370
    18
100
AcDbLine
 10
616.6593861979172
 20
1213.359507154115
 30
0.0
 11
616.6593861979172
 21
1198.359507154115
 31
0.0
  0
MTEXT
  5
1329
330
3EA
100
AcDbEntity
  8
寸法
 62
     0
370
    18
100
AcDbMText
 10
602.3432804933317
 20
1155.675266445888
 30
0.0
 40
25.0
 41
0.0
 71
     5
 72
     1
  1
15
 11
0.0000000000000001
 21
1.0
 31
0.0
 73
     1
 44
1.0
1001
ACAD
1000
MTEXTBEGIN
1070
    73
1070
     1
1070
    44
1040
1.0
1070
    74
1070
     0
1000
MTEXTEND
  0
INSERT
  5
132A
330
3EA
100
AcDbEntity
  8
寸法
 62
     0
370
    18
100
AcDbBlockReference
  2
_DotSmall
 10
616.6593861979172
 20
1213.359507154115
 30
0.0
 41
25.0
 42
25.0
 43
25.0
 50
90.0
  0
INSERT
  5
132B
330
3EA
100
AcDbEntity
  8
寸法
 62
     0
370
    18
100
AcDbBlockReference
  2
_DotSmall
 10
616.6593861979172
 20
1198.359507154115
 30
0.0
 41
25.0
 42
25.0
 43
25.0
 50
270.0
  0
POINT
  5
132C
330
3EA
100
AcDbEntity
  8
Defpoints
 62
     0
100
AcDbPoint
 10
759.8347009217905
 20
1213.359507154115
 30
0.0
  0
POINT
  5
132D
330
3EA
100
AcDbEntity
  8
Defpoints
 62
     0
100
AcDbPoint
 10
759.8347009217905
 20
1198.359507154115
 30
0.0
  0
POINT
  5
132E
330
3EA
100
AcDbEntity
  8
Defpoints
 62
     0
100
AcDbPoint
 10
616.6593861979172
 20
1198.359507154115
 30
0.0
  0
ENDBLK
  5
3F5
330
3EA
100
AcDbEntity
  8
0
100
AcDbBlockEnd
  0
BLOCK
  5
401
330
3F7
100
AcDbEntity
  8
0
100
AcDbBlockBegin
  2
*D9
 70
     1
 10
0.0
 20
0.0
 30
0.0
  3
*D9
  1

  0
LINE
  5
131D
330
3F7
100
AcDbEntity
  8
寸法
 62
     0
370
    15
100
AcDbLine
 10
694.8347009217904
 20
1668.359507154115
 30
0.0
 11
547.819487873233
 21
1668.359507154115
 31
0.0
  0
LINE
  5
131E
330
3F7
100
AcDbEntity
  8
寸法
 62
     0
370
    15
100
AcDbLine
 10
694.8347009217904
 20
1198.359507154115
 30
0.0
 11
547.8194878732328
 21
1198.359507154115
 31
0.0
  0
LINE
  5
131F
330
3F7
100
AcDbEntity
  8
寸法
 62
     0
370
    18
100
AcDbLine
 10
547.819487873233
 20
1668.359507154115
 30
0.0
 11
547.8194878732328
 21
1198.359507154115
 31
0.0
  0
INSERT
  5
1320
330
3F7
100
AcDbEntity
  8
寸法
 62
     0
370
    18
100
AcDbBlockReference
  2
_DotSmall
 10
547.819487873233
 20
1668.359507154115
 30
0.0
 41
25.0
 42
25.0
 43
25.0
 50
90.0
  0
INSERT
  5
1321
330
3F7
100
AcDbEntity
  8
寸法
 62
     0
370
    18
100
AcDbBlockReference
  2
_DotSmall
 10
547.8194878732328
 20
1198.359507154115
 30
0.0
 41
25.0
 42
25.0
 43
25.0
 50
270.0
  0
MTEXT
  5
1322
330
3F7
100
AcDbEntity
  8
寸法
 62
     0
100
AcDbMText
 10
529.0694878732328
 20
1433.359507154115
 30
0.0
 40
25.0
 41
0.0
 71
     5
 72
     1
  1
470
 11
0.0000000000000001
 21
1.0
 31
0.0
 73
     1
 44
1.0
1001
ACAD
1000
MTEXTBEGIN
1070
    73
1070
     1
1070
    44
1040
1.0
1070
    74
1070
     0
1000
MTEXTEND
  0
POINT
  5
1323
330
3F7
100
AcDbEntity
  8
Defpoints
 62
     0
100
AcDbPoint
 10
759.8347009217905
 20
1668.359507154115
 30
0.0
  0
POINT
  5
1324
330
3F7
100
AcDbEntity
  8
Defpoints
 62
     0
100
AcDbPoint
 10
759.8347009217905
 20
1198.359507154115
 30
0.0
  0
POINT
  5
1325
330
3F7
100
AcDbEntity
  8
Defpoints
 62
     0
100
AcDbPoint
 10
547.8194878732328
 20
1198.359507154115
 30
0.0
  0
ENDBLK
  5
402
330
3F7
100
AcDbEntity
  8
0
100
AcDbBlockEnd
  0
BLOCK
  5
449
330
43E
100
AcDbEntity
  8
0
100
AcDbBlockBegin
  2
*D10
 70
     1
 10
0.0
 20
0.0
 30
0.0
  3
*D10
  1

  0
LINE
  5
1314
330
43E
100
AcDbEntity
  8
寸法
 62
     0
370
    15
100
AcDbLine
 10
759.8347009217905
 20
1133.359507154115
 30
0.0
 11
759.8347009217905
 21
1050.42738938406
 31
0.0
  0
LINE
  5
1315
330
43E
100
AcDbEntity
  8
寸法
 62
     0
370
    15
100
AcDbLine
 10
774.8347009217905
 20
1133.359507154115
 30
0.0
 11
774.8347009217905
 21
1050.42738938406
 31
0.0
  0
LINE
  5
1316
330
43E
100
AcDbEntity
  8
寸法
 62
     0
370
    18
100
AcDbLine
 10
759.8347009217905
 20
1050.42738938406
 30
0.0
 11
774.8347009217905
 21
1050.42738938406
 31
0.0
  0
LINE
  5
1317
330
43E
100
AcDbEntity
  8
寸法
 62
     0
370
    18
100
AcDbLine
 10
774.8347009217905
 20
1050.42738938406
 30
0.0
 11
840.5847009217904
 21
1050.42738938406
 31
0.0
  0
INSERT
  5
1318
330
43E
100
AcDbEntity
  8
寸法
 62
     0
370
    18
100
AcDbBlockReference
  2
_DotSmall
 10
759.8347009217905
 20
1050.42738938406
 30
0.0
 41
25.0
 42
25.0
 43
25.0
 50
180.0
  0
INSERT
  5
1319
330
43E
100
AcDbEntity
  8
寸法
 62
     0
370
    18
100
AcDbBlockReference
  2
_DotSmall
 10
774.8347009217905
 20
1050.42738938406
 30
0.0
 41
25.0
 42
25.0
 43
25.0
  0
POINT
  5
131A
330
43E
100
AcDbEntity
  8
Defpoints
 62
     0
100
AcDbPoint
 10
759.8347009217905
 20
1198.359507154115
 30
0.0
  0
POINT
  5
131B
330
43E
100
AcDbEntity
  8
Defpoints
 62
     0
100
AcDbPoint
 10
774.8347009217905
 20
1198.359507154115
 30
0.0
  0
POINT
  5
131C
330
43E
100
AcDbEntity
  8
Defpoints
 62
     0
100
AcDbPoint
 10
774.8347009217905
 20
1050.42738938406
 30
0.0
  0
ENDBLK
  5
44A
330
43E
100
AcDbEntity
  8
0
100
AcDbBlockEnd
  0
BLOCK
  5
456
330
44C
100
AcDbEntity
  8
0
100
AcDbBlockBegin
  2
*D11
 70
     1
 10
0.0
 20
0.0
 30
0.0
  3
*D11
  1

  0
LINE
  5
130B
330
44C
100
AcDbEntity
  8
寸法
 62
     0
370
    15
100
AcDbLine
 10
774.8347009217905
 20
1133.359507154115
 30
0.0
 11
774.8347009217905
 21
1050.42738938406
 31
0.0
  0
LINE
  5
130C
330
44C
100
AcDbEntity
  8
寸法
 62
     0
370
    15
100
AcDbLine
 10
1324.83470092179
 20
1133.359507154115
 30
0.0
 11
1324.83470092179
 21
1050.42738938406
 31
0.0
  0
LINE
  5
130D
330
44C
100
AcDbEntity
  8
寸法
 62
     0
370
    18
100
AcDbLine
 10
774.8347009217905
 20
1050.42738938406
 30
0.0
 11
1324.83470092179
 21
1050.42738938406
 31
0.0
  0
INSERT
  5
130E
330
44C
100
AcDbEntity
  8
寸法
 62
     0
370
    18
100
AcDbBlockReference
  2
_DotSmall
 10
774.8347009217905
 20
1050.42738938406
 30
0.0
 41
25.0
 42
25.0
 43
25.0
 50
180.0
  0
INSERT
  5
130F
330
44C
100
AcDbEntity
  8
寸法
 62
     0
370
    18
100
AcDbBlockReference
  2
_DotSmall
 10
1324.83470092179
 20
1050.42738938406
 30
0.0
 41
25.0
 42
25.0
 43
25.0
  0
MTEXT
  5
1310
330
44C
100
AcDbEntity
  8
寸法
 62
     0
100
AcDbMText
 10
1049.83470092179
 20
1069.17738938406
 30
0.0
 40
25.0
 41
0.0
 71
     5
 72
     1
  1
550
 73
     1
 44
1.0
1001
ACAD
1000
MTEXTBEGIN
1070
    73
1070
     1
1070
    44
1040
1.0
1070
    74
1070
     0
1000
MTEXTEND
  0
POINT
  5
1311
330
44C
100
AcDbEntity
  8
Defpoints
 62
     0
100
AcDbPoint
 10
774.8347009217905
 20
1198.359507154115
 30
0.0
  0
POINT
  5
1312
330
44C
100
AcDbEntity
  8
Defpoints
 62
     0
100
AcDbPoint
 10
1324.83470092179
 20
1198.359507154115
 30
0.0
  0
POINT
  5
1313
330
44C
100
AcDbEntity
  8
Defpoints
 62
     0
100
AcDbPoint
 10
1324.83470092179
 20
1050.42738938406
 30
0.0
  0
ENDBLK
  5
457
330
44C
100
AcDbEntity
  8
0
100
AcDbBlockEnd
  0
BLOCK
  5
465
330
459
100
AcDbEntity
  8
0
100
AcDbBlockBegin
  2
*D12
 70
     1
 10
0.0
 20
0.0
 30
0.0
  3
*D12
  1

  0
LINE
  5
1303
330
459
100
AcDbEntity
  8
寸法
 62
     0
370
    15
100
AcDbLine
 10
1324.83470092179
 20
1133.359507154115
 30
0.0
 11
1324.83470092179
 21
1050.42738938406
 31
0.0
  0
LINE
  5
1304
330
459
100
AcDbEntity
  8
寸法
 62
     0
370
    15
100
AcDbLine
 10
1339.83470092179
 20
1133.359507154115
 30
0.0
 11
1339.83470092179
 21
1050.42738938406
 31
0.0
  0
LINE
  5
1305
330
459
100
AcDbEntity
  8
寸法
 62
     0
370
    18
100
AcDbLine
 10
1324.83470092179
 20
1050.42738938406
 30
0.0
 11
1339.83470092179
 21
1050.42738938406
 31
0.0
  0
INSERT
  5
1306
330
459
100
AcDbEntity
  8
寸法
 62
     0
370
    18
100
AcDbBlockReference
  2
_DotSmall
 10
1324.83470092179
 20
1050.42738938406
 30
0.0
 41
25.0
 42
25.0
 43
25.0
 50
180.0
  0
INSERT
  5
1307
330
459
100
AcDbEntity
  8
寸法
 62
     0
370
    18
100
AcDbBlockReference
  2
_DotSmall
 10
1339.83470092179
 20
1050.42738938406
 30
0.0
 41
25.0
 42
25.0
 43
25.0
  0
POINT
  5
1308
330
459
100
AcDbEntity
  8
Defpoints
 62
     0
100
AcDbPoint
 10
1324.83470092179
 20
1198.359507154115
 30
0.0
  0
POINT
  5
1309
330
459
100
AcDbEntity
  8
Defpoints
 62
     0
100
AcDbPoint
 10
1339.83470092179
 20
1198.359507154115
 30
0.0
  0
POINT
  5
130A
330
459
100
AcDbEntity
  8
Defpoints
 62
     0
100
AcDbPoint
 10
1339.83470092179
 20
1050.42738938406
 30
0.0
  0
ENDBLK
  5
466
330
459
100
AcDbEntity
  8
0
100
AcDbBlockEnd
  0
BLOCK
  5
4AE
330
4A4
100
AcDbEntity
  8
0
100
AcDbBlockBegin
  2
*D13
 70
     1
 10
0.0
 20
0.0
 30
0.0
  3
*D13
  1

  0
LINE
  5
12FA
330
4A4
100
AcDbEntity
  8
寸法
 62
     0
370
    15
100
AcDbLine
 10
759.8347009217905
 20
1133.359507154115
 30
0.0
 11
759.8347009217905
 21
972.6354792281908
 31
0.0
  0
LINE
  5
12FB
330
4A4
100
AcDbEntity
  8
寸法
 62
     0
370
    15
100
AcDbLine
 10
1339.83470092179
 20
1133.359507154115
 30
0.0
 11
1339.83470092179
 21
972.6354792281908
 31
0.0
  0
LINE
  5
12FC
330
4A4
100
AcDbEntity
  8
寸法
 62
     0
370
    18
100
AcDbLine
 10
759.8347009217905
 20
972.6354792281908
 30
0.0
 11
1339.83470092179
 21
972.6354792281908
 31
0.0
  0
INSERT
  5
12FD
330
4A4
100
AcDbEntity
  8
寸法
 62
     0
370
    18
100
AcDbBlockReference
  2
_DotSmall
 10
759.8347009217905
 20
972.6354792281908
 30
0.0
 41
25.0
 42
25.0
 43
25.0
 50
180.0
  0
INSERT
  5
12FE
330
4A4
100
AcDbEntity
  8
寸法
 62
     0
370
    18
100
AcDbBlockReference
  2
_DotSmall
 10
1339.83470092179
 20
972.6354792281908
 30
0.0
 41
25.0
 42
25.0
 43
25.0
  0
MTEXT
  5
12FF
330
4A4
100
AcDbEntity
  8
寸法
 62
     0
100
AcDbMText
 10
1049.83470092179
 20
991.3854792281908
 30
0.0
 40
25.0
 41
0.0
 71
     5
 72
     1
  1
580
 73
     1
 44
1.0
1001
ACAD
1000
MTEXTBEGIN
1070
    73
1070
     1
1070
    44
1040
1.0
1070
    74
1070
     0
1000
MTEXTEND
  0
POINT
  5
1300
330
4A4
100
AcDbEntity
  8
Defpoints
 62
     0
100
AcDbPoint
 10
759.8347009217905
 20
1198.359507154115
 30
0.0
  0
POINT
  5
1301
330
4A4
100
AcDbEntity
  8
Defpoints
 62
     0
100
AcDbPoint
 10
1339.83470092179
 20
1198.359507154115
 30
0.0
  0
POINT
  5
1302
330
4A4
100
AcDbEntity
  8
Defpoints
 62
     0
100
AcDbPoint
 10
1339.83470092179
 20
972.6354792281908
 30
0.0
  0
ENDBLK
  5
4AF
330
4A4
100
AcDbEntity
  8
0
100
AcDbBlockEnd
  0
BLOCK
  5
503
330
4F9
100
AcDbEntity
  8
0
100
AcDbBlockBegin
  2
*D14
 70
     1
 10
0.0
 20
0.0
 30
0.0
  3
*D14
  1

  0
LINE
  5
1373
330
4F9
100
AcDbEntity
  8
寸法
 62
     0
370
    15
100
AcDbLine
 10
844.8347009217904
 20
488.3595071541149
 30
0.0
 11
844.8347009217904
 21
436.932099853042
 31
0.0
  0
LINE
  5
1374
330
4F9
100
AcDbEntity
  8
寸法
 62
     0
370
    15
100
AcDbLine
 10
1004.83470092179
 20
488.3595071541149
 30
0.0
 11
1004.83470092179
 21
436.932099853042
 31
0.0
  0
LINE
  5
1375
330
4F9
100
AcDbEntity
  8
寸法
 62
     0
370
    18
100
AcDbLine
 10
844.8347009217904
 20
436.932099853042
 30
0.0
 11
1004.83470092179
 21
436.932099853042
 31
0.0
  0
INSERT
  5
1376
330
4F9
100
AcDbEntity
  8
寸法
 62
     0
370
    18
100
AcDbBlockReference
  2
_DotSmall
 10
844.8347009217904
 20
436.932099853042
 30
0.0
 41
25.0
 42
25.0
 43
25.0
 50
180.0
  0
INSERT
  5
1377
330
4F9
100
AcDbEntity
  8
寸法
 62
     0
370
    18
100
AcDbBlockReference
  2
_DotSmall
 10
1004.83470092179
 20
436.932099853042
 30
0.0
 41
25.0
 42
25.0
 43
25.0
  0
MTEXT
  5
1378
330
4F9
100
AcDbEntity
  8
寸法
 62
     0
100
AcDbMText
 10
924.8347009217905
 20
455.682099853042
 30
0.0
 40
25.0
 41
0.0
 71
     5
 72
     1
  1
158
 73
     1
 44
1.0
1001
ACAD
1000
MTEXTBEGIN
1070
    73
1070
     1
1070
    44
1040
1.0
1070
    74
1070
     0
1000
MTEXTEND
  0
POINT
  5
1379
330
4F9
100
AcDbEntity
  8
Defpoints
 62
     0
100
AcDbPoint
 10
844.8347009217904
 20
553.3595071541149
 30
0.0
  0
POINT
  5
137A
330
4F9
100
AcDbEntity
  8
Defpoints
 62
     0
100
AcDbPoint
 10
1004.83470092179
 20
553.3595071541149
 30
0.0
  0
POINT
  5
137B
330
4F9
100
AcDbEntity
  8
Defpoints
 62
     0
100
AcDbPoint
 10
1004.83470092179
 20
436.932099853042
 30
0.0
  0
ENDBLK
  5
504
330
4F9
100
AcDbEntity
  8
0
100
AcDbBlockEnd
  0
BLOCK
  5
510
330
506
100
AcDbEntity
  8
0
100
AcDbBlockBegin
  2
*D15
 70
     1
 10
0.0
 20
0.0
 30
0.0
  3
*D15
  1

  0
LINE
  5
12E8
330
506
100
AcDbEntity
  8
寸法
 62
     0
370
    15
100
AcDbLine
 10
834.3347009217904
 20
488.359507154115
 30
0.0
 11
834.3347009217904
 21
376.9727012841131
 31
0.0
  0
LINE
  5
12E9
330
506
100
AcDbEntity
  8
寸法
 62
     0
370
    15
100
AcDbLine
 10
1015.33470092179
 20
488.3595071541149
 30
0.0
 11
1015.33470092179
 21
376.9727012841131
 31
0.0
  0
LINE
  5
12EA
330
506
100
AcDbEntity
  8
寸法
 62
     0
370
    18
100
AcDbLine
 10
834.3347009217904
 20
376.9727012841131
 30
0.0
 11
1015.33470092179
 21
376.9727012841131
 31
0.0
  0
INSERT
  5
12EB
330
506
100
AcDbEntity
  8
寸法
 62
     0
370
    18
100
AcDbBlockReference
  2
_DotSmall
 10
834.3347009217904
 20
376.9727012841131
 30
0.0
 41
25.0
 42
25.0
 43
25.0
 50
180.0
  0
INSERT
  5
12EC
330
506
100
AcDbEntity
  8
寸法
 62
     0
370
    18
100
AcDbBlockReference
  2
_DotSmall
 10
1015.33470092179
 20
376.9727012841131
 30
0.0
 41
25.0
 42
25.0
 43
25.0
  0
MTEXT
  5
12ED
330
506
100
AcDbEntity
  8
寸法
 62
     0
100
AcDbMText
 10
924.8347009217905
 20
395.7227012841131
 30
0.0
 40
25.0
 41
0.0
 71
     5
 72
     1
  1
181
 73
     1
 44
1.0
1001
ACAD
1000
MTEXTBEGIN
1070
    73
1070
     1
1070
    44
1040
1.0
1070
    74
1070
     0
1000
MTEXTEND
  0
POINT
  5
12EE
330
506
100
AcDbEntity
  8
Defpoints
 62
     0
100
AcDbPoint
 10
834.3347009217904
 20
553.3595071541149
 30
0.0
  0
POINT
  5
12EF
330
506
100
AcDbEntity
  8
Defpoints
 62
     0
100
AcDbPoint
 10
1015.33470092179
 20
553.3595071541149
 30
0.0
  0
POINT
  5
12F0
330
506
100
AcDbEntity
  8
Defpoints
 62
     0
100
AcDbPoint
 10
1015.33470092179
 20
376.9727012841131
 30
0.0
  0
ENDBLK
  5
511
330
506
100
AcDbEntity
  8
0
100
AcDbBlockEnd
  0
BLOCK
  5
574
330
56A
100
AcDbEntity
  8
0
100
AcDbBlockBegin
  2
*D16
 70
     1
 10
0.0
 20
0.0
 30
0.0
  3
*D16
  1

  0
LINE
  5
137C
330
56A
100
AcDbEntity
  8
寸法
 62
     0
370
    15
100
AcDbLine
 10
2059.834700921791
 20
1513.359507154115
 30
0.0
 11
2105.140845013711
 21
1513.359507154115
 31
0.0
  0
LINE
  5
137D
330
56A
100
AcDbEntity
  8
寸法
 62
     0
370
    15
100
AcDbLine
 10
2059.834700921791
 20
1353.359507154115
 30
0.0
 11
2105.140845013711
 21
1353.359507154115
 31
0.0
  0
LINE
  5
137E
330
56A
100
AcDbEntity
  8
寸法
 62
     0
370
    18
100
AcDbLine
 10
2105.140845013711
 20
1513.359507154115
 30
0.0
 11
2105.140845013711
 21
1353.359507154115
 31
0.0
  0
INSERT
  5
137F
330
56A
100
AcDbEntity
  8
寸法
 62
     0
370
    18
100
AcDbBlockReference
  2
_DotSmall
 10
2105.140845013711
 20
1513.359507154115
 30
0.0
 41
25.0
 42
25.0
 43
25.0
 50
90.0
  0
INSERT
  5
1380
330
56A
100
AcDbEntity
  8
寸法
 62
     0
370
    18
100
AcDbBlockReference
  2
_DotSmall
 10
2105.140845013711
 20
1353.359507154115
 30
0.0
 41
25.0
 42
25.0
 43
25.0
 50
270.0
  0
MTEXT
  5
1381
330
56A
100
AcDbEntity
  8
寸法
 62
     0
100
AcDbMText
 10
2086.39084501371
 20
1433.359507154115
 30
0.0
 40
25.0
 41
0.0
 71
     5
 72
     1
  1
158
 11
0.0000000000000001
 21
1.0
 31
0.0
 73
     1
 44
1.0
1001
ACAD
1000
MTEXTBEGIN
1070
    73
1070
     1
1070
    44
1040
1.0
1070
    74
1070
     0
1000
MTEXTEND
  0
POINT
  5
1382
330
56A
100
AcDbEntity
  8
Defpoints
 62
     0
100
AcDbPoint
 10
1994.83470092179
 20
1513.359507154115
 30
0.0
  0
POINT
  5
1383
330
56A
100
AcDbEntity
  8
Defpoints
 62
     0
100
AcDbPoint
 10
1994.83470092179
 20
1353.359507154115
 30
0.0
  0
POINT
  5
1384
330
56A
100
AcDbEntity
  8
Defpoints
 62
     0
100
AcDbPoint
 10
2105.140845013711
 20
1353.359507154115
 30
0.0
  0
ENDBLK
  5
575
330
56A
100
AcDbEntity
  8
0
100
AcDbBlockEnd
  0
BLOCK
  5
58A
330
580
100
AcDbEntity
  8
0
100
AcDbBlockBegin
  2
*D17
 70
     1
 10
0.0
 20
0.0
 30
0.0
  3
*D17
  1

  0
LINE
  5
12D6
330
580
100
AcDbEntity
  8
寸法
 62
     0
370
    15
100
AcDbLine
 10
2059.834700921791
 20
1523.859507154115
 30
0.0
 11
2170.062432978552
 21
1523.859507154115
 31
0.0
  0
LINE
  5
12D7
330
580
100
AcDbEntity
  8
寸法
 62
     0
370
    15
100
AcDbLine
 10
2059.834700921791
 20
1342.859507154115
 30
0.0
 11
2170.062432978552
 21
1342.859507154115
 31
0.0
  0
LINE
  5
12D8
330
580
100
AcDbEntity
  8
寸法
 62
     0
370
    18
100
AcDbLine
 10
2170.062432978552
 20
1523.859507154115
 30
0.0
 11
2170.062432978552
 21
1342.859507154115
 31
0.0
  0
INSERT
  5
12D9
330
580
100
AcDbEntity
  8
寸法
 62
     0
370
    18
100
AcDbBlockReference
  2
_DotSmall
 10
2170.062432978552
 20
1523.859507154115
 30
0.0
 41
25.0
 42
25.0
 43
25.0
 50
90.0
  0
INSERT
  5
12DA
330
580
100
AcDbEntity
  8
寸法
 62
     0
370
    18
100
AcDbBlockReference
  2
_DotSmall
 10
2170.062432978552
 20
1342.859507154115
 30
0.0
 41
25.0
 42
25.0
 43
25.0
 50
270.0
  0
MTEXT
  5
12DB
330
580
100
AcDbEntity
  8
寸法
 62
     0
100
AcDbMText
 10
2151.312432978552
 20
1433.359507154115
 30
0.0
 40
25.0
 41
0.0
 71
     5
 72
     1
  1
181
 11
0.0000000000000001
 21
1.0
 31
0.0
 73
     1
 44
1.0
1001
ACAD
1000
MTEXTBEGIN
1070
    73
1070
     1
1070
    44
1040
1.0
1070
    74
1070
     0
1000
MTEXTEND
  0
POINT
  5
12DC
330
580
100
AcDbEntity
  8
Defpoints
 62
     0
100
AcDbPoint
 10
1994.83470092179
 20
1523.859507154115
 30
0.0
  0
POINT
  5
12DD
330
580
100
AcDbEntity
  8
Defpoints
 62
     0
100
AcDbPoint
 10
1994.83470092179
 20
1342.859507154115
 30
0.0
  0
POINT
  5
12DE
330
580
100
AcDbEntity
  8
Defpoints
 62
     0
100
AcDbPoint
 10
2170.062432978552
 20
1342.859507154115
 30
0.0
  0
ENDBLK
  5
58B
330
580
100
AcDbEntity
  8
0
100
AcDbBlockEnd
  0
BLOCK
  5
12A6
330
129D
100
AcDbEntity
  8
0
100
AcDbBlockBegin
  2
*D18
 70
     1
 10
0.0
 20
0.0
 30
0.0
  3
*D18
  1

  0
LINE
  5
12CE
330
129D
100
AcDbEntity
  8
寸法
 62
     0
370
    15
100
AcDbLine
 10
1984.834700921791
 20
1135.519664801637
 30
0.0
 11
1984.834700921791
 21
1079.612930764202
 31
0.0
  0
LINE
  5
12CF
330
129D
100
AcDbEntity
  8
寸法
 62
     0
370
    15
100
AcDbLine
 10
1969.83470092179
 20
1135.519664801637
 30
0.0
 11
1969.83470092179
 21
1079.612930764202
 31
0.0
  0
LINE
  5
12D0
330
129D
100
AcDbEntity
  8
寸法
 62
     0
370
    18
100
AcDbLine
 10
1984.834700921791
 20
1079.612930764202
 30
0.0
 11
1969.83470092179
 21
1079.612930764202
 31
0.0
  0
INSERT
  5
12D1
330
129D
100
AcDbEntity
  8
寸法
 62
     0
370
    18
100
AcDbBlockReference
  2
_DotSmall
 10
1984.834700921791
 20
1079.612930764202
 30
0.0
 41
25.0
 42
25.0
 43
25.0
  0
INSERT
  5
12D2
330
129D
100
AcDbEntity
  8
寸法
 62
     0
370
    18
100
AcDbBlockReference
  2
_DotSmall
 10
1969.83470092179
 20
1079.612930764202
 30
0.0
 41
25.0
 42
25.0
 43
25.0
 50
180.0
  0
POINT
  5
12D3
330
129D
100
AcDbEntity
  8
Defpoints
 62
     0
100
AcDbPoint
 10
1984.834700921791
 20
1200.519664801637
 30
0.0
  0
POINT
  5
12D4
330
129D
100
AcDbEntity
  8
Defpoints
 62
     0
100
AcDbPoint
 10
1969.83470092179
 20
1200.519664801637
 30
0.0
  0
POINT
  5
12D5
330
129D
100
AcDbEntity
  8
Defpoints
 62
     0
100
AcDbPoint
 10
1969.83470092179
 20
1079.612930764202
 30
0.0
  0
ENDBLK
  5
12A7
330
129D
100
AcDbEntity
  8
0
100
AcDbBlockEnd
  0
BLOCK
  5
12B2
330
12A8
100
AcDbEntity
  8
0
100
AcDbBlockBegin
  2
*D19
 70
     1
 10
0.0
 20
0.0
 30
0.0
  3
*D19
  1

  0
LINE
  5
12C5
330
12A8
100
AcDbEntity
  8
寸法
 62
     0
370
    15
100
AcDbLine
 10
1984.834700921791
 20
1112.2257035812
 30
0.0
 11
1984.834700921791
 21
1016.24124386516
 31
0.0
  0
LINE
  5
12C6
330
12A8
100
AcDbEntity
  8
寸法
 62
     0
370
    15
100
AcDbLine
 10
1784.83470092179
 20
1133.819040510425
 30
0.0
 11
1784.83470092179
 21
1016.24124386516
 31
0.0
  0
LINE
  5
12C7
330
12A8
100
AcDbEntity
  8
寸法
 62
     0
370
    18
100
AcDbLine
 10
1984.834700921791
 20
1016.24124386516
 30
0.0
 11
1784.83470092179
 21
1016.24124386516
 31
0.0
  0
INSERT
  5
12C8
330
12A8
100
AcDbEntity
  8
寸法
 62
     0
370
    18
100
AcDbBlockReference
  2
_DotSmall
 10
1984.834700921791
 20
1016.24124386516
 30
0.0
 41
25.0
 42
25.0
 43
25.0
  0
INSERT
  5
12C9
330
12A8
100
AcDbEntity
  8
寸法
 62
     0
370
    18
100
AcDbBlockReference
  2
_DotSmall
 10
1784.83470092179
 20
1016.24124386516
 30
0.0
 41
25.0
 42
25.0
 43
25.0
 50
180.0
  0
MTEXT
  5
12CA
330
12A8
100
AcDbEntity
  8
寸法
 62
     0
100
AcDbMText
 10
1884.834700921791
 20
1034.99124386516
 30
0.0
 40
25.0
 41
0.0
 71
     5
 72
     1
  1
200
 73
     1
 44
1.0
1001
ACAD
1000
MTEXTBEGIN
1070
    73
1070
     1
1070
    44
1040
1.0
1070
    74
1070
     0
1000
MTEXTEND
  0
POINT
  5
12CB
330
12A8
100
AcDbEntity
  8
Defpoints
 62
     0
100
AcDbPoint
 10
1984.834700921791
 20
1177.2257035812
 30
0.0
  0
POINT
  5
12CC
330
12A8
100
AcDbEntity
  8
Defpoints
 62
     0
100
AcDbPoint
 10
1784.83470092179
 20
1198.819040510425
 30
0.0
  0
POINT
  5
12CD
330
12A8
100
AcDbEntity
  8
Defpoints
 62
     0
100
AcDbPoint
 10
1784.83470092179
 20
1016.24124386516
 30
0.0
  0
ENDBLK
  5
12B3
330
12A8
100
AcDbEntity
  8
0
100
AcDbBlockEnd
  0
BLOCK
  5
13D3
330
13CF
100
AcDbEntity
  8
0
100
AcDbBlockBegin
  2
A$C50993744
 70
     0
 10
0.0
 20
0.0
 30
0.0
  3
A$C50993744
  1

  0
TEXT
  5
13D0
330
13CF
100
AcDbEntity
  8
0
 62
     0
100
AcDbText
 10
-0.0000024454632997
 20
-0.0000014989582147
 30
0.0
 40
0.1
  1
132R
 72
     2
 11
0.3333308878700336
 21
-0.0133348322915481
 31
0.0
100
AcDbText
 73
     1
  0
ENDBLK
  5
13D4
330
13CF
100
AcDbEntity
  8
0
100
AcDbBlockEnd
  0
BLOCK
  5
13DA
330
13D6
100
AcDbEntity
  8
0
100
AcDbBlockBegin
  2
A$C7EFB5B20
 70
     0
 10
0.0
 20
0.0
 30
0.0
  3
A$C7EFB5B20
  1

  0
TEXT
  5
13D7
330
13D6
100
AcDbEntity
  8
0
 62
     0
100
AcDbText
 10
-0.0000024454632997
 20
-0.0000014989582147
 30
0.0
 40
0.1
  1
132R
 72
     2
 11
0.3333308878700336
 21
-0.0133348322915481
 31
0.0
100
AcDbText
 73
     1
  0
ENDBLK
  5
13DB
330
13D6
100
AcDbEntity
  8
0
100
AcDbBlockEnd
  0
ENDSEC
  0
SECTION
  2
ENTITIES
  0
LINE
  5
9C
330
1F
100
AcDbEntity
  8
補助
100
AcDbLine
 10
119.0
 20
4.0
 30
0.0
 11
2784.0
 21
4.0
 31
0.0
  0
LINE
  5
A0
330
1F
100
AcDbEntity
  8
補助
100
AcDbLine
 10
2784.0
 20
2024.0
 30
0.0
 11
119.0
 21
2024.0
 31
0.0
  0
LINE
  5
A5
330
1F
100
AcDbEntity
  8
補助
100
AcDbLine
 10
2784.0
 20
4.0
 30
0.0
 11
2784.0
 21
2024.0
 31
0.0
  0
LINE
  5
2E6
330
1F
100
AcDbEntity
  8
実形
100
AcDbLine
 10
759.8347009217905
 20
763.3595071541149
 30
0.0
 11
1339.83470092179
 21
763.3595071541149
 31
0.0
  0
CIRCLE
  5
2EB
330
1F
100
AcDbEntity
  8
実形
100
AcDbCircle
 10
924.8347009217905
 20
1433.359507154115
 30
0.0
 40
79.0
  0
CIRCLE
  5
2EE
330
1F
100
AcDbEntity
  8
実形
100
AcDbCircle
 10
924.8347009217905
 20
1433.359507154115
 30
0.0
 40
90.5
  0
LINE
  5
2F9
330
1F
100
AcDbEntity
  8
実形
100
AcDbLine
 10
834.3347009217904
 20
563.3595071541149
 30
0.0
 11
1004.83470092179
 21
563.3595071541149
 31
0.0
  0
LINE
  5
2FA
330
1F
100
AcDbEntity
  8
実形
100
AcDbLine
 10
1004.83470092179
 20
563.3595071541149
 30
0.0
 11
1015.33470092179
 21
563.3595071541149
 31
0.0
  0
LINE
  5
2FB
330
1F
100
AcDbEntity
  8
実形
100
AcDbLine
 10
1015.33470092179
 20
563.3595071541149
 30
0.0
 11
1015.33470092179
 21
563.3595071541149
 31
0.0
  0
LINE
  5
2FE
330
1F
100
AcDbEntity
  8
実形
100
AcDbLine
 10
1784.834700921791
 20
1668.359507154115
 30
0.0
 11
1784.834700921791
 21
1198.359507154115
 31
0.0
  0
LINE
  5
301
330
1F
100
AcDbEntity
  8
実形
100
AcDbLine
 10
1984.834700921791
 20
1342.859507154115
 30
0.0
 11
1984.834700921791
 21
1523.859507154115
 31
0.0
  0
LINE
  5
306
330
1F
100
AcDbEntity
  8
実形
100
AcDbLine
 10
834.3347009217904
 20
563.3595071541149
 30
0.0
 11
834.3347009217904
 21
553.3595071541149
 31
0.0
  0
LINE
  5
307
330
1F
100
AcDbEntity
  8
実形
100
AcDbLine
 10
834.3347009217904
 20
553.3595071541149
 30
0.0
 11
1015.33470092179
 21
553.3595071541149
 31
0.0
  0
LINE
  5
308
330
1F
100
AcDbEntity
  8
実形
100
AcDbLine
 10
1015.33470092179
 20
553.3595071541149
 30
0.0
 11
1015.33470092179
 21
563.3595071541149
 31
0.0
  0
LINE
  5
309
330
1F
100
AcDbEntity
  8
実形
100
AcDbLine
 10
1984.834700921791
 20
1523.859507154115
 30
0.0
 11
1994.83470092179
 21
1523.859507154115
 31
0.0
  0
LINE
  5
30A
330
1F
100
AcDbEntity
  8
実形
100
AcDbLine
 10
1994.83470092179
 20
1523.859507154115
 30
0.0
 11
1994.83470092179
 21
1342.859507154115
 31
0.0
  0
LINE
  5
30B
330
1F
100
AcDbEntity
  8
実形
100
AcDbLine
 10
1994.83470092179
 20
1342.859507154115
 30
0.0
 11
1984.834700921791
 21
1342.859507154115
 31
0.0
  0
LINE
  5
33A
330
1F
100
AcDbEntity
  8
センター
370
    15
100
AcDbLine
 10
802.0436926908487
 20
1433.359507154115
 30
0.0
 11
1052.02220092179
 21
1433.359507154115
 31
0.0
  0
LINE
  5
33B
330
1F
100
AcDbEntity
  8
センター
370
    15
100
AcDbLine
 10
924.8347009217905
 20
1556.150515385056
 30
0.0
 11
924.8347009217905
 21
1310.568498923173
 31
0.0
  0
LINE
  5
33C
330
1F
100
AcDbEntity
  8
センター
 48
0.5
370
    15
100
AcDbLine
 10
924.8347009217905
 20
641.5761310295283
 30
0.0
 11
924.8347009217905
 21
485.1603107222281
 31
0.0
  0
LINE
  5
33D
330
1F
100
AcDbEntity
  8
センター
 48
0.5
370
    15
100
AcDbLine
 10
1858.298912242833
 20
1433.359507154115
 30
0.0
 11
2017.209864499895
 21
1433.359507154115
 31
0.0
  0
DIMENSION
  5
35B
330
1F
100
AcDbEntity
  8
寸法
100
AcDbDimension
  2
*D4
 10
774.8347009217905
 20
1747.162625317523
 30
0.0
 11
849.8347009217905
 21
1765.912625317523
 31
0.0
 70
    32
 71
     5
 42
150.0
  3
ISO-25
100
AcDbAlignedDimension
 13
924.8347009217905
 23
1483.64010564108
 33
0.0
 14
774.8347009217905
 24
1433.359507154115
 34
0.0
100
AcDbRotatedDimension
1001
ACAD
1000
DSTYLE
1002
{
1070
    41
1040
25.0
1070
   371
1070
    18
1002
}
  0
DIMENSION
  5
368
330
1F
100
AcDbEntity
  8
寸法
100
AcDbDimension
  2
*D5
 10
1049.83470092179
 20
1653.359507154115
 30
0.0
 11
1031.08470092179
 21
1543.359507154115
 31
0.0
 70
    32
 71
     5
 42
220.0
  3
ISO-25
100
AcDbAlignedDimension
 13
953.3743137537248
 23
1433.359507154115
 33
0.0
 14
1111.248925009262
 24
1653.359507154115
 34
0.0
 50
90.0
100
AcDbRotatedDimension
1001
ACAD
1000
DSTYLE
1002
{
1070
    41
1040
25.0
1070
   371
1070
    18
1002
}
  0
TEXT
  5
395
330
1F
100
AcDbEntity
  8
寸法
370
    18
100
AcDbText
 10
1013.151668668996
 20
1261.537477392292
 30
0.0
 40
25.0
  1
2000R
100
AcDbText
  0
TEXT
  5
397
330
1F
100
AcDbEntity
  8
寸法
370
    18
100
AcDbText
 10
1129.210822504714
 20
1461.489049405148
 30
0.0
 40
25.0
  1
1300R
100
AcDbText
  0
TEXT
  5
398
330
1F
100
AcDbEntity
  8
寸法
370
    18
100
AcDbText
 10
1151.423494426349
 20
1312.436503267662
 30
0.0
 40
25.0
  1
110R
100
AcDbText
  0
TEXT
  5
3AF
330
1F
100
AcDbEntity
  8
寸法
100
AcDbText
 10
1187.032906886491
 20
622.6342861151747
 30
0.0
 40
25.0
  1
30R
100
AcDbText
  0
TEXT
  5
3B1
330
1F
100
AcDbEntity
  8
寸法
370
    18
100
AcDbText
 10
1847.371285582655
 20
1271.84313521256
 30
0.0
 40
25.0
  1
30R
100
AcDbText
  0
DIMENSION
  5
3CE
330
1F
100
AcDbEntity
  8
寸法
100
AcDbDimension
  2
*D6
 10
616.6593861979172
 20
1653.359507154115
 30
0.0
 11
616.659386197917
 21
1660.859507154115
 31
0.0
 70
    32
  1
 
 71
     5
 42
15.0
  3
ISO-25
100
AcDbAlignedDimension
 13
759.8347009217905
 23
1668.359507154115
 33
0.0
 14
759.8347009217905
 24
1653.359507154115
 34
0.0
 50
90.0
100
AcDbRotatedDimension
1001
ACAD
1000
DSTYLE
1002
{
1070
    41
1040
25.0
1070
   371
1070
    18
1002
}
  0
DIMENSION
  5
3DC
330
1F
100
AcDbEntity
  8
寸法
100
AcDbDimension
  2
*D7
 10
616.6593861979172
 20
1213.359507154115
 30
0.0
 11
597.9093861979171
 21
1433.359507154115
 31
0.0
 70
    32
 71
     5
 42
440.0
  3
ISO-25
100
AcDbAlignedDimension
 13
759.8347009217905
 23
1653.359507154115
 33
0.0
 14
759.8347009217905
 24
1213.359507154115
 34
0.0
 50
90.0
100
AcDbRotatedDimension
1001
ACAD
1000
DSTYLE
1002
{
1070
    41
1040
25.0
1070
   371
1070
    18
1070
   279
1070
     1
1002
}
  0
DIMENSION
  5
3E9
330
1F
100
AcDbEntity
  8
寸法
370
    18
100
AcDbDimension
  2
*D8
 10
616.6593861979172
 20
1198.359507154115
 30
0.0
 11
621.0932804933317
 21
1155.675266445888
 31
0.0
 70
   160
 71
     5
 42
15.0
  3
ISO-25
100
AcDbAlignedDimension
 13
759.8347009217905
 23
1213.359507154115
 33
0.0
 14
759.8347009217905
 24
1198.359507154115
 34
0.0
 50
90.0
100
AcDbRotatedDimension
1001
ACAD
1000
DSTYLE
1002
{
1070
    41
1040
25.0
1070
   371
1070
    18
1070
   279
1070
     1
1002
}
  0
DIMENSION
  5
3F6
330
1F
100
AcDbEntity
  8
寸法
100
AcDbDimension
  2
*D9
 10
547.8194878732328
 20
1198.359507154115
 30
0.0
 11
529.0694878732328
 21
1433.359507154115
 31
0.0
 70
    32
 71
     5
 42
470.0
  3
ISO-25
100
AcDbAlignedDimension
 13
759.8347009217905
 23
1668.359507154115
 33
0.0
 14
759.8347009217905
 24
1198.359507154115
 34
0.0
 50
90.0
100
AcDbRotatedDimension
1001
ACAD
1000
DSTYLE
1002
{
1070
    41
1040
25.0
1070
   371
1070
    18
1002
}
  0
TEXT
  5
43C
330
1F
100
AcDbEntity
  8
寸法
370
    18
100
AcDbText
 10
621.0932804933317
 20
1693.61068009344
 30
0.0
 40
25.0
  1
15
 50
90.0
100
AcDbText
  0
DIMENSION
  5
43D
330
1F
100
AcDbEntity
  8
寸法
100
AcDbDimension
  2
*D10
 10
774.8347009217905
 20
1050.42738938406
 30
0.0
 11
834.3347009217904
 21
1050.42738938406
 31
0.0
 70
   160
  1
 
 71
     5
 42
15.0
  3
ISO-25
100
AcDbAlignedDimension
 13
759.8347009217905
 23
1198.359507154115
 33
0.0
 14
774.8347009217905
 24
1198.359507154115
 34
0.0
100
AcDbRotatedDimension
1001
ACAD
1000
DSTYLE
1002
{
1070
    41
1040
25.0
1070
   371
1070
    18
1002
}
  0
DIMENSION
  5
44B
330
1F
100
AcDbEntity
  8
寸法
100
AcDbDimension
  2
*D11
 10
1324.83470092179
 20
1050.42738938406
 30
0.0
 11
1049.83470092179
 21
1069.17738938406
 31
0.0
 70
    32
 71
     5
 42
550.0
  3
ISO-25
100
AcDbAlignedDimension
 13
774.8347009217905
 23
1198.359507154115
 33
0.0
 14
1324.83470092179
 24
1198.359507154115
 34
0.0
100
AcDbRotatedDimension
1001
ACAD
1000
DSTYLE
1002
{
1070
    41
1040
25.0
1070
   371
1070
    18
1070
   279
1070
     1
1002
}
  0
DIMENSION
  5
458
330
1F
100
AcDbEntity
  8
寸法
100
AcDbDimension
  2
*D12
 10
1339.83470092179
 20
1050.42738938406
 30
0.0
 11
1332.33470092179
 21
1050.42738938406
 31
0.0
 70
    32
  1
 
 71
     5
 42
15.0
  3
ISO-25
100
AcDbAlignedDimension
 13
1324.83470092179
 23
1198.359507154115
 33
0.0
 14
1339.83470092179
 24
1198.359507154115
 34
0.0
100
AcDbRotatedDimension
1001
ACAD
1000
DSTYLE
1002
{
1070
    41
1040
25.0
1070
   371
1070
    18
1070
   279
1070
     1
1002
}
  0
TEXT
  5
494
330
1F
100
AcDbEntity
  8
寸法
100
AcDbText
 10
701.2364844755747
 20
1052.715387018456
 30
0.0
 40
25.0
  1
15
100
AcDbText
  0
TEXT
  5
495
330
1F
100
AcDbEntity
  8
寸法
370
    18
100
AcDbText
 10
1363.098160968384
 20
1052.715387018456
 30
0.0
 40
25.0
  1
15
100
AcDbText
  0
DIMENSION
  5
4A3
330
1F
100
AcDbEntity
  8
寸法
100
AcDbDimension
  2
*D13
 10
1339.83470092179
 20
972.6354792281908
 30
0.0
 11
1049.83470092179
 21
991.3854792281908
 31
0.0
 70
    32
 71
     5
 42
580.0
  3
ISO-25
100
AcDbAlignedDimension
 13
759.8347009217905
 23
1198.359507154115
 33
0.0
 14
1339.83470092179
 24
1198.359507154115
 34
0.0
100
AcDbRotatedDimension
1001
ACAD
1000
DSTYLE
1002
{
1070
    41
1040
25.0
1070
   371
1070
    18
1002
}
  0
DIMENSION
  5
4F8
330
1F
100
AcDbEntity
  8
寸法
100
AcDbDimension
  2
*D14
 10
1004.83470092179
 20
436.932099853042
 30
0.0
 11
924.8347009217905
 21
455.682099853042
 31
0.0
 70
    32
  1
158
 71
     5
 42
160.0
  3
ISO-25
100
AcDbAlignedDimension
 13
844.8347009217904
 23
553.3595071541149
 33
0.0
 14
1004.83470092179
 24
553.3595071541149
 34
0.0
100
AcDbRotatedDimension
1001
ACAD
1000
DSTYLE
1002
{
1070
    41
1040
25.0
1070
   371
1070
    18
1002
}
  0
DIMENSION
  5
505
330
1F
100
AcDbEntity
  8
寸法
100
AcDbDimension
  2
*D15
 10
1015.33470092179
 20
376.9727012841131
 30
0.0
 11
924.8347009217905
 21
395.7227012841131
 31
0.0
 70
    32
 71
     5
 42
181.0
  3
ISO-25
100
AcDbAlignedDimension
 13
834.3347009217904
 23
553.3595071541149
 33
0.0
 14
1015.33470092179
 24
553.3595071541149
 34
0.0
100
AcDbRotatedDimension
1001
ACAD
1000
DSTYLE
1002
{
1070
    41
1040
25.0
1070
   371
1070
    18
1002
}
  0
DIMENSION
  5
569
330
1F
100
AcDbEntity
  8
寸法
100
AcDbDimension
  2
*D16
 10
2105.140845013711
 20
1353.359507154115
 30
0.0
 11
2086.39084501371
 21
1433.359507154115
 31
0.0
 70
    32
  1
158
 71
     5
 42
160.0
  3
ISO-25
100
AcDbAlignedDimension
 13
1994.83470092179
 23
1513.359507154115
 33
0.0
 14
1994.83470092179
 24
1353.359507154115
 34
0.0
 50
90.0
100
AcDbRotatedDimension
1001
ACAD
1000
DSTYLE
1002
{
1070
    41
1040
25.0
1070
   371
1070
    18
1002
}
  0
DIMENSION
  5
57F
330
1F
100
AcDbEntity
  8
寸法
100
AcDbDimension
  2
*D17
 10
2170.062432978552
 20
1342.859507154115
 30
0.0
 11
2151.312432978552
 21
1433.359507154115
 31
0.0
 70
    32
 71
     5
 42
181.0
  3
ISO-25
100
AcDbAlignedDimension
 13
1994.83470092179
 23
1523.859507154115
 33
0.0
 14
1994.83470092179
 24
1342.859507154115
 34
0.0
 50
90.0
100
AcDbRotatedDimension
1001
ACAD
1000
DSTYLE
1002
{
1070
    41
1040
25.0
1070
   371
1070
    18
1002
}
  0
LEADER
  5
7CF
330
1F
100
AcDbEntity
  8
0
100
AcDbLeader
  3
ISO-25
 40
25.0
 41
16.66666666666666
 76
     2
 10
960.7539231771797
 20
1219.440465538275
 30
0.0
 10
999.9763323718243
 20
1254.277291756994
 30
0.0
213
0.0
223
-12.5
233
0.0
1001
ACAD
1000
DSTYLE
1002
{
1070
    41
1040
25.0
1070
   147
1040
6.25
1070
    77
1070
     0
1070
    73
1070
     1
1070
    74
1070
     1
1070
   279
1070
     1
1070
   342
1005
DA
1002
}
  0
LEADER
  5
7D0
330
1F
100
AcDbEntity
  8
0
100
AcDbLeader
  3
ISO-25
 40
25.0
 41
16.66666666666666
 76
     2
 10
1317.193148379546
 20
1472.497556741348
 30
0.0
 10
1243.10637454046
 20
1474.674858968481
 30
0.0
213
0.0
223
-12.5
233
0.0
1001
ACAD
1000
DSTYLE
1002
{
1070
    41
1040
25.0
1070
   147
1040
6.25
1070
    77
1070
     0
1070
    73
1070
     1
1070
    74
1070
     1
1070
   279
1070
     1
1070
   342
1005
DA
1002
}
  0
LEADER
  5
7D1
330
1F
100
AcDbEntity
  8
0
100
AcDbLeader
  3
ISO-25
 40
25.0
 41
16.66666666666666
 76
     2
 10
1282.071844204213
 20
1263.589693533239
 30
0.0
 10
1234.133345909163
 20
1305.165211816251
 30
0.0
213
0.0
223
-12.5
233
0.0
1001
ACAD
1000
DSTYLE
1002
{
1070
    41
1040
25.0
1070
   147
1040
6.25
1070
    77
1070
     0
1070
    73
1070
     1
1070
    74
1070
     1
1070
   279
1070
     1
1070
   342
1005
DA
1002
}
  0
LEADER
  5
7D2
330
1F
100
AcDbEntity
  8
0
100
AcDbLeader
  3
ISO-25
 40
25.0
 41
16.66666666666666
 76
     2
 10
1308.477051036322
 20
593.1088173701482
 30
0.0
 10
1260.538552741272
 20
623.5910391346033
 30
0.0
213
0.0
223
-12.5
233
0.0
1001
ACAD
1000
DSTYLE
1002
{
1070
    41
1040
25.0
1070
   147
1040
6.25
1070
    77
1070
     0
1070
    73
1070
     1
1070
    74
1070
     1
1070
   279
1070
     1
1070
   342
1005
DA
1002
}
  0
LEADER
  5
7D3
330
1F
100
AcDbEntity
  8
0
100
AcDbLeader
  3
ISO-25
 40
25.0
 41
16.66666666666666
 76
     2
 10
1962.183848966205
 20
1231.058191027369
 30
0.0
 10
1925.140470289479
 20
1268.072314765521
 30
0.0
213
0.0
223
-12.5
233
0.0
1001
ACAD
1000
DSTYLE
1002
{
1070
    41
1040
25.0
1070
   147
1040
6.25
1070
    77
1070
     0
1070
    73
1070
     1
1070
    74
1070
     1
1070
   279
1070
     1
1070
   342
1005
DA
1002
}
  0
TEXT
  5
8C9
330
1F
100
AcDbEntity
  8
0
100
AcDbText
 10
249.2632881086038
 20
83.52862940911927
 30
0.0
 40
30.0
  1
※実寸には製造上の誤差が多少生ずる場合があります。シンクの穴あけ加工は現物合わせにてお願いします。
100
AcDbText
  0
LINE
  5
F27
330
1F
100
AcDbEntity
  8
実形
100
AcDbLine
 10
759.8347009217905
 20
763.3595071541149
 30
0.0
 11
1339.83470092179
 21
763.3595071541149
 31
0.0
  0
LINE
  5
F2A
330
1F
100
AcDbEntity
  8
実形
100
AcDbLine
 10
774.8347009217905
 20
763.3595071541149
 30
0.0
 11
774.8347009217905
 21
601.7351204132389
 31
0.0
  0
LINE
  5
F2B
330
1F
100
AcDbEntity
  8
実形
100
AcDbLine
 10
797.5011281620087
 20
572.6452817994379
 30
0.0
 11
834.3347009217904
 21
563.3595071541149
 31
0.0
  0
ARC
  5
F2C
330
1F
100
AcDbEntity
  8
実形
100
AcDbCircle
 10
804.8347009217904
 20
601.7351204132389
 30
0.0
 40
30.0
100
AcDbArc
 50
180.0
 51
255.8505239136548
  0
LINE
  5
F2E
330
1F
100
AcDbEntity
  8
実形
100
AcDbLine
 10
1784.834700921791
 20
1653.359507154115
 30
0.0
 11
1943.109025690982
 21
1653.359507154115
 31
0.0
  0
LINE
  5
F2F
330
1F
100
AcDbEntity
  8
実形
100
AcDbLine
 10
1972.90977913912
 20
1626.811331877837
 30
0.0
 11
1984.834700921791
 21
1523.859507154115
 31
0.0
  0
LINE
  5
F30
330
1F
100
AcDbEntity
  8
実形
100
AcDbLine
 10
1984.834700921791
 20
1342.859507154115
 30
0.0
 11
1972.90977913912
 21
1239.907682430392
 31
0.0
  0
LINE
  5
F31
330
1F
100
AcDbEntity
  8
実形
100
AcDbLine
 10
1943.109025690982
 20
1213.359507154115
 30
0.0
 11
1784.834700921791
 21
1213.359507154115
 31
0.0
  0
ARC
  5
F32
330
1F
100
AcDbEntity
  8
実形
100
AcDbCircle
 10
1943.109025690982
 20
1623.359507154115
 30
0.0
 40
30.0
100
AcDbArc
 50
6.607133302227483
 51
90.0
  0
ARC
  5
F33
330
1F
100
AcDbEntity
  8
実形
100
AcDbCircle
 10
1943.109025690982
 20
1243.359507154115
 30
0.0
 40
30.0
100
AcDbArc
 50
270.0
 51
353.3928666977725
  0
ARC
  5
1058
330
1F
100
AcDbEntity
  8
実形
100
AcDbCircle
 10
1049.83470092179
 20
3213.359507154115
 30
0.0
 40
2000.0
100
AcDbArc
 50
265.1279555298176
 51
274.8720444701823
  0
ARC
  5
1059
330
1F
100
AcDbEntity
  8
実形
100
AcDbCircle
 10
1049.83470092179
 20
-346.6404928458851
 30
0.0
 40
2000.0
100
AcDbArc
 50
85.12795552981767
 51
94.87204447018234
  0
ARC
  5
105B
330
1F
100
AcDbEntity
  8
実形
100
AcDbCircle
 10
2074.83470092179
 20
1433.359507154115
 30
0.0
 40
1300.0
100
AcDbArc
 50
175.0263005811522
 51
184.9736994188478
  0
ARC
  5
105C
330
1F
100
AcDbEntity
  8
実形
100
AcDbCircle
 10
24.8347009217905
 20
1433.359507154115
 30
0.0
 40
1300.0
100
AcDbArc
 50
355.0263005811522
 51
4.973699418847809
  0
ARC
  5
105D
330
1F
100
AcDbEntity
  8
実形
100
AcDbCircle
 10
1210.353875383634
 20
1536.53066098748
 30
0.0
 40
110.0
100
AcDbArc
 50
4.973699418847864
 51
85.12795552981767
  0
ARC
  5
105E
330
1F
100
AcDbEntity
  8
実形
100
AcDbCircle
 10
1210.353875383634
 20
1330.18835332075
 30
0.0
 40
110.0
100
AcDbArc
 50
274.8720444701826
 51
355.0263005811522
  0
ARC
  5
105F
330
1F
100
AcDbEntity
  8
実形
100
AcDbCircle
 10
889.3155264599466
 20
1330.18835332075
 30
0.0
 40
110.0
100
AcDbArc
 50
184.9736994188475
 51
265.127955529817
  0
ARC
  5
1060
330
1F
100
AcDbEntity
  8
実形
100
AcDbCircle
 10
889.3155264599466
 20
1536.53066098748
 30
0.0
 40
110.0
100
AcDbArc
 50
94.87204447018243
 51
175.0263005811522
  0
ARC
  5
109B
330
1F
100
AcDbEntity
  8
実形
100
AcDbCircle
 10
1210.353875383634
 20
1536.53066098748
 30
0.0
 40
125.0
100
AcDbArc
 50
4.973699418847864
 51
85.12795552981767
  0
ARC
  5
109C
330
1F
100
AcDbEntity
  8
実形
100
AcDbCircle
 10
24.8347009217905
 20
1433.359507154115
 30
0.0
 40
1315.0
100
AcDbArc
 50
355.0263005811522
 51
4.973699418847809
  0
ARC
  5
109D
330
1F
100
AcDbEntity
  8
実形
100
AcDbCircle
 10
1210.353875383634
 20
1330.18835332075
 30
0.0
 40
125.0
100
AcDbArc
 50
274.8720444701826
 51
355.0263005811522
  0
ARC
  5
109E
330
1F
100
AcDbEntity
  8
実形
100
AcDbCircle
 10
1049.83470092179
 20
3213.359507154115
 30
0.0
 40
2015.0
100
AcDbArc
 50
265.1279555298176
 51
274.8720444701823
  0
ARC
  5
109F
330
1F
100
AcDbEntity
  8
実形
100
AcDbCircle
 10
889.3155264599466
 20
1330.18835332075
 30
0.0
 40
125.0
100
AcDbArc
 50
184.9736994188475
 51
265.127955529817
  0
ARC
  5
10A1
330
1F
100
AcDbEntity
  8
実形
100
AcDbCircle
 10
2074.83470092179
 20
1433.359507154115
 30
0.0
 40
1315.0
100
AcDbArc
 50
175.0263005811522
 51
184.9736994188478
  0
ARC
  5
10A2
330
1F
100
AcDbEntity
  8
実形
100
AcDbCircle
 10
889.3155264599466
 20
1536.53066098748
 30
0.0
 40
125.0
100
AcDbArc
 50
94.87204447018243
 51
175.0263005811522
  0
ARC
  5
10A3
330
1F
100
AcDbEntity
  8
実形
100
AcDbCircle
 10
1049.83470092179
 20
-346.6404928458851
 30
0.0
 40
2015.0
100
AcDbArc
 50
85.12795552981767
 51
94.87204447018234
  0
LINE
  5
10A4
330
1F
100
AcDbEntity
  8
実形
100
AcDbLine
 10
1324.83470092179
 20
763.3595071541149
 30
0.0
 11
1324.83470092179
 21
606.9407617228725
 31
0.0
  0
LINE
  5
10A5
330
1F
100
AcDbEntity
  8
実形
100
AcDbLine
 10
1296.286954332946
 20
576.9759330060286
 30
0.0
 11
1015.33470092179
 21
563.3595071541149
 31
0.0
  0
ARC
  5
10A7
330
1F
100
AcDbEntity
  8
実形
100
AcDbCircle
 10
1294.83470092179
 20
606.9407617228725
 30
0.0
 40
30.0
100
AcDbArc
 50
272.7746841173154
 51
0.0
  0
LINE
  5
1184
330
1F
100
AcDbEntity
  8
補助
100
AcDbLine
 10
2064.0
 20
134.0
 30
0.0
 11
2784.0
 21
134.0
 31
0.0
  0
LINE
  5
1185
330
1F
100
AcDbEntity
  8
補助
100
AcDbLine
 10
2064.0
 20
199.0
 30
0.0
 11
2784.0
 21
199.0
 31
0.0
  0
LINE
  5
1186
330
1F
100
AcDbEntity
  8
補助
100
AcDbLine
 10
2064.0
 20
69.0
 30
0.0
 11
2784.0
 21
69.0
 31
0.0
  0
TEXT
  5
1187
330
1F
100
AcDbEntity
  8
補助
100
AcDbText
 10
2086.666666666667
 20
149.0
 30
0.0
 40
35.0
  1
品番
 72
     4
 11
2124.0
 21
166.5
 31
0.0
100
AcDbText
  0
TEXT
  5
1188
330
1F
100
AcDbEntity
  8
補助
100
AcDbText
 10
2086.666666666667
 20
84.0
 30
0.0
 40
35.0
  1
尺度
 72
     4
 11
2124.0
 21
101.5
 31
0.0
100
AcDbText
  0
LINE
  5
1189
330
1F
100
AcDbEntity
  8
補助
100
AcDbLine
 10
2064.0
 20
4.0
 30
0.0
 11
2064.0
 21
199.0
 31
0.0
  0
LINE
  5
118A
330
1F
100
AcDbEntity
  8
補助
100
AcDbLine
 10
2184.0
 20
69.0
 30
0.0
 11
2784.0
 21
69.0
 31
0.0
  0
TEXT
  5
118B
330
1F
100
AcDbEntity
  8
補助
100
AcDbText
 10
2300.255774665348
 20
16.49999999999999
 30
0.0
 40
40.0
  1
中外交易株式会社
 72
     4
 11
2488.255774665347
 21
36.5
 31
0.0
100
AcDbText
  0
TEXT
  5
118C
330
1F
100
AcDbEntity
  8
0
100
AcDbText
 10
2333.5
 20
149.0
 30
0.0
 40
35.0
  1
CI 550-440
 72
     4
 11
2484.0
 21
166.5
 31
0.0
100
AcDbText
  0
LINE
  5
118D
330
1F
100
AcDbEntity
  8
補助
100
AcDbLine
 10
2184.0
 20
69.0
 30
0.0
 11
2184.0
 21
199.0
 31
0.0
  0
HATCH
  5
118E
330
1F
100
AcDbEntity
  8
補助
100
AcDbHatch
 10
0.0
 20
0.0
 30
0.0
210
0.0
220
0.0
230
1.0
  2
SOLID
 70
     1
 71
     1
 91
        3
 92
        1
 93
        4
 72
     2
 10
2257.166198313996
 20
36.5
 40
20.0
 50
11.647723667075
 51
342.6561058784859
 73
     1
 72
     1
 10
2276.256852341323
 20
30.53787547858514
 11
2252.166198313995
 21
30.53787547858519
 72
     1
 10
2252.166198313995
 20
30.53787547858519
 11
2252.166198313995
 21
40.53787547858519
 72
     1
 10
2252.166198313995
 20
40.53787547858519
 11
2276.75434681301
 21
40.53787547858519
 97
        4
330
118F
330
1191
330
1192
330
1193
 92
        1
 93
        4
 72
     2
 10
2188.255774665348
 20
36.5
 40
20.0
 50
11.647723667075
 51
342.6561058784859
 73
     1
 72
     1
 10
2207.346428692676
 20
30.53787547858514
 11
2183.255774665347
 21
30.53787547858519
 72
     1
 10
2183.255774665347
 20
30.53787547858519
 11
2183.255774665347
 21
40.53787547858519
 72
     1
 10
2183.255774665347
 20
40.53787547858519
 11
2207.843923164362
 21
40.53787547858519
 97
        4
330
1190
330
1199
330
119A
330
119B
 92
        1
 93
        5
 72
     1
 10
2245.64189404294
 20
56.5
 11
2210.641894042939
 21
56.5
 72
     1
 10
2210.641894042939
 20
56.5
 11
2210.641894042939
 21
16.5
 72
     1
 10
2210.641894042939
 20
16.5
 11
2245.64189404294
 21
16.5
 72
     1
 10
2245.64189404294
 20
16.5
 11
2210.641894042939
 21
36.5
 72
     1
 10
2210.641894042939
 20
36.5
 11
2245.64189404294
 21
56.5
 97
        5
330
1194
330
1198
330
1197
330
1196
330
1195
 75
     0
 76
     1
 98
        1
 10
-60.0
 20
0.0
  0
ARC
  5
118F
102
{ACAD_REACTORS
330
118E
102
}
330
1F
100
AcDbEntity
  8
補助
370
     5
100
AcDbCircle
 10
2257.166198313996
 20
36.5
 30
0.0
 40
20.0
100
AcDbArc
 50
11.647723667075
 51
342.6561058784859
  0
ARC
  5
1190
102
{ACAD_REACTORS
330
118E
102
}
330
1F
100
AcDbEntity
  8
補助
370
     5
100
AcDbCircle
 10
2188.255774665348
 20
36.5
 30
0.0
 40
20.0
100
AcDbArc
 50
11.647723667075
 51
342.6561058784859
  0
LINE
  5
1191
102
{ACAD_REACTORS
330
118E
102
}
330
1F
100
AcDbEntity
  8
補助
370
     5
100
AcDbLine
 10
2252.166198313995
 20
30.53787547858519
 30
0.0
 11
2276.256852341323
 21
30.53787547858514
 31
0.0
  0
LINE
  5
1192
102
{ACAD_REACTORS
330
118E
102
}
330
1F
100
AcDbEntity
  8
補助
370
     5
100
AcDbLine
 10
2252.166198313995
 20
40.53787547858519
 30
0.0
 11
2252.166198313995
 21
30.53787547858519
 31
0.0
  0
LINE
  5
1193
102
{ACAD_REACTORS
330
118E
102
}
330
1F
100
AcDbEntity
  8
補助
370
     5
100
AcDbLine
 10
2276.75434681301
 20
40.53787547858519
 30
0.0
 11
2252.166198313995
 21
40.53787547858519
 31
0.0
  0
LINE
  5
1194
102
{ACAD_REACTORS
330
118E
102
}
330
1F
100
AcDbEntity
  8
補助
370
     5
100
AcDbLine
 10
2245.64189404294
 20
56.5
 30
0.0
 11
2210.641894042939
 21
56.5
 31
0.0
  0
LINE
  5
1195
102
{ACAD_REACTORS
330
118E
102
}
330
1F
100
AcDbEntity
  8
補助
370
     5
100
AcDbLine
 10
2210.641894042939
 20
36.5
 30
0.0
 11
2245.64189404294
 21
56.5
 31
0.0
  0
LINE
  5
1196
102
{ACAD_REACTORS
330
118E
102
}
330
1F
100
AcDbEntity
  8
補助
370
     5
100
AcDbLine
 10
2245.64189404294
 20
16.5
 30
0.0
 11
2210.641894042939
 21
36.5
 31
0.0
  0
LINE
  5
1197
102
{ACAD_REACTORS
330
118E
102
}
330
1F
100
AcDbEntity
  8
補助
370
     5
100
AcDbLine
 10
2210.641894042939
 20
16.5
 30
0.0
 11
2245.64189404294
 21
16.5
 31
0.0
  0
LINE
  5
1198
102
{ACAD_REACTORS
330
118E
102
}
330
1F
100
AcDbEntity
  8
補助
370
     5
100
AcDbLine
 10
2210.641894042939
 20
56.5
 30
0.0
 11
2210.641894042939
 21
16.5
 31
0.0
  0
LINE
  5
1199
102
{ACAD_REACTORS
330
118E
102
}
330
1F
100
AcDbEntity
  8
補助
370
     5
100
AcDbLine
 10
2183.255774665347
 20
30.53787547858519
 30
0.0
 11
2207.346428692676
 21
30.53787547858514
 31
0.0
  0
LINE
  5
119A
102
{ACAD_REACTORS
330
118E
102
}
330
1F
100
AcDbEntity
  8
補助
370
     5
100
AcDbLine
 10
2183.255774665347
 20
40.53787547858519
 30
0.0
 11
2183.255774665347
 21
30.53787547858519
 31
0.0
  0
LINE
  5
119B
102
{ACAD_REACTORS
330
118E
102
}
330
1F
100
AcDbEntity
  8
補助
370
     5
100
AcDbLine
 10
2207.843923164362
 20
40.53787547858519
 30
0.0
 11
2183.255774665347
 21
40.53787547858519
 31
0.0
  0
TEXT
  5
119C
330
1F
100
AcDbEntity
  8
0
100
AcDbText
 10
2430.916666666667
 20
84.0
 30
0.0
 40
35.0
  1
1：10
 72
     4
 11
2484.0
 21
101.5
 31
0.0
100
AcDbText
  0
LINE
  5
119D
330
1F
100
AcDbEntity
  8
補助
100
AcDbLine
 10
2784.0
 20
4.0
 30
0.0
 11
2784.0
 21
69.0
 31
0.0
  0
LINE
  5
119E
330
1F
100
AcDbEntity
  8
補助
100
AcDbLine
 10
2784.0
 20
134.0
 30
0.0
 11
2784.0
 21
199.0
 31
0.0
  0
LINE
  5
119F
330
1F
100
AcDbEntity
  8
補助
100
AcDbLine
 10
2784.0
 20
69.0
 30
0.0
 11
2784.0
 21
134.0
 31
0.0
  0
LINE
  5
1262
330
1F
100
AcDbEntity
  8
実形
100
AcDbLine
 10
667.4708301513025
 20
763.3595071541147
 30
0.0
 11
547.2665992801348
 21
763.3595071541149
 31
0.0
  0
LINE
  5
1263
330
1F
100
AcDbEntity
  8
実形
100
AcDbLine
 10
667.4708301513025
 20
563.3595071541149
 30
0.0
 11
547.2665992801348
 21
563.359507154115
 31
0.0
  0
LINE
  5
1264
330
1F
100
AcDbEntity
  8
実形
100
AcDbLine
 10
667.4708301513027
 20
553.3595071541149
 30
0.0
 11
614.2665992801347
 21
553.3595071541149
 31
0.0
  0
TEXT
  5
1265
330
1F
100
AcDbEntity
  8
寸法
 62
     0
370
    18
100
AcDbText
 10
538.890099149019
 20
629.6005355943125
 30
0.0
 40
25.0
  1
200
 50
90.0
100
AcDbText
  0
LINE
  5
1266
330
1F
100
AcDbEntity
  8
実形
100
AcDbLine
 10
547.2665992801348
 20
763.3595071541149
 30
0.0
 11
547.2665992801348
 21
563.3595071541149
 31
0.0
  0
TEXT
  5
1267
330
1F
100
AcDbEntity
  8
寸法
 62
     0
370
    18
100
AcDbText
 10
545.812070850229
 20
761.759416543824
 30
0.0
 40
3.0
  1
●
100
AcDbText
  0
TEXT
  5
1268
330
1F
100
AcDbEntity
  8
寸法
 62
     0
370
    18
100
AcDbText
 10
545.8820276708254
 20
561.8298506259398
 30
0.0
 40
3.0
  1
●
100
AcDbText
  0
TEXT
  5
1269
330
1F
100
AcDbEntity
  8
寸法
 62
     0
370
    18
100
AcDbText
 10
594.8049582389323
 20
567.6267382638934
 30
0.0
 40
25.0
  1
15
 50
90.0
100
AcDbText
  0
LINE
  5
126A
330
1F
100
AcDbEntity
  8
実形
 62
     0
100
AcDbLine
 10
667.4708301513025
 20
578.3595071541148
 30
0.0
 11
614.2665992801347
 21
578.3595071541147
 31
0.0
  0
LINE
  5
126B
330
1F
100
AcDbEntity
  8
実形
 62
     0
100
AcDbLine
 10
614.2665992801347
 20
578.3595071541145
 30
0.0
 11
614.2665992801347
 21
563.3595071541149
 31
0.0
  0
TEXT
  5
126C
330
1F
100
AcDbEntity
  8
寸法
 62
     0
370
    18
100
AcDbText
 10
612.9122382551456
 20
562.0716272799918
 30
0.0
 40
3.0
  1
●
100
AcDbText
  0
TEXT
  5
126D
330
1F
100
AcDbEntity
  8
寸法
 62
     0
370
    18
100
AcDbText
 10
612.778459173335
 20
577.0487365388171
 30
0.0
 40
3.0
  1
●
100
AcDbText
  0
LINE
  5
126E
330
1F
100
AcDbEntity
  8
実形
100
AcDbLine
 10
614.2665992801347
 20
563.3595071541149
 30
0.0
 11
614.2665992801347
 21
553.3595071541149
 31
0.0
  0
TEXT
  5
126F
330
1F
100
AcDbEntity
  8
寸法
 62
     0
370
    18
100
AcDbText
 10
612.8665157739149
 20
551.9061112377722
 30
0.0
 40
3.0
  1
●
100
AcDbText
  0
TEXT
  5
1270
330
1F
100
AcDbEntity
  8
寸法
 62
     0
370
    18
100
AcDbText
 10
594.386233434938
 20
532.0101318371162
 30
0.0
 40
25.0
  1
7
 50
90.0
100
AcDbText
  0
LINE
  5
1271
330
1F
100
AcDbEntity
  8
実形
100
AcDbLine
 10
667.4708301513028
 20
563.3595071541149
 30
0.0
 11
547.2665992801348
 21
563.359507154115
 31
0.0
  0
DIMENSION
  5
1295
330
1F
100
AcDbEntity
  8
寸法
100
AcDbDimension
  2
*D18
 10
1969.83470092179
 20
1079.612930764202
 30
0.0
 11
1977.33470092179
 21
1079.612930764202
 31
0.0
 70
    32
  1
 
 71
     5
 42
15.0
  3
ISO-25
100
AcDbAlignedDimension
 13
1984.834700921791
 23
1200.519664801637
 33
0.0
 14
1969.83470092179
 24
1200.519664801637
 34
0.0
100
AcDbRotatedDimension
1001
ACAD
1000
DSTYLE
1002
{
1070
    41
1040
25.0
1070
   371
1070
    18
1002
}
  0
DIMENSION
  5
1296
330
1F
100
AcDbEntity
  8
寸法
100
AcDbDimension
  2
*D19
 10
1784.83470092179
 20
1016.24124386516
 30
0.0
 11
1884.834700921791
 21
1034.99124386516
 31
0.0
 70
    32
 71
     5
 42
200.0000000000002
  3
ISO-25
100
AcDbAlignedDimension
 13
1984.834700921791
 23
1177.2257035812
 33
0.0
 14
1784.83470092179
 24
1198.819040510425
 34
0.0
100
AcDbRotatedDimension
1001
ACAD
1000
DSTYLE
1002
{
1070
    41
1040
25.0
1070
   371
1070
    18
1002
}
  0
TEXT
  5
1297
330
1F
100
AcDbEntity
  8
寸法
370
    18
100
AcDbText
 10
1921.014803035474
 20
1091.848103547019
 30
0.0
 40
25.0
  1
15
100
AcDbText
  0
TEXT
  5
1298
330
1F
100
AcDbEntity
  8
寸法
370
    18
100
AcDbText
 10
2004.705439161164
 20
1090.597822944982
 30
0.0
 40
25.0
  1
7
100
AcDbText
  0
LINE
  5
1299
330
1F
100
AcDbEntity
  8
実形
100
AcDbLine
 10
1984.834700921791
 20
1079.612930764202
 30
0.0
 11
1984.834700921791
 21
1135.519664801637
 31
0.0
  0
LINE
  5
129A
330
1F
100
AcDbEntity
  8
実形
100
AcDbLine
 10
1984.834700921791
 20
1079.612930764202
 30
0.0
 11
1994.83470092179
 21
1079.612930764202
 31
0.0
  0
LINE
  5
129B
330
1F
100
AcDbEntity
  8
実形
100
AcDbLine
 10
1994.834700921791
 20
1135.519664801637
 30
0.0
 11
1994.834700921791
 21
1079.612930764202
 31
0.0
  0
TEXT
  5
129C
330
1F
100
AcDbEntity
  8
寸法
 62
     0
370
    18
100
AcDbText
 10
1992.511141977007
 20
1077.198389973447
 30
0.0
 40
5.0
  1
●
100
AcDbText
  0
LINE
  5
13DC
330
1F
100
AcDbEntity
  8
補助
100
AcDbLine
 10
119.0
 20
2024.0
 30
0.0
 11
119.0
 21
4.0
 31
0.0
  0
LINE
  5
13FD
330
1F
100
AcDbEntity
  8
補助
100
AcDbLine
 10
2784.0
 20
1959.0
 30
0.0
 11
2019.387286519283
 21
1959.000000000001
 31
0.0
  0
LINE
  5
13FE
330
1F
100
AcDbEntity
  8
補助
100
AcDbLine
 10
2784.0
 20
1894.0
 30
0.0
 11
2019.387286519283
 21
1894.0
 31
0.0
  0
LINE
  5
13FF
330
1F
100
AcDbEntity
  8
補助
100
AcDbLine
 10
2202.547653420927
 20
1894.0
 30
0.0
 11
2202.547653420927
 21
2024.0
 31
0.0
  0
LINE
  5
1400
330
1F
100
AcDbEntity
  8
補助
100
AcDbLine
 10
2019.387286519283
 20
1894.0
 30
0.0
 11
2019.387286519283
 21
2024.0
 31
0.0
  0
TEXT
  5
1401
330
1F
100
AcDbEntity
  8
補助
100
AcDbText
 10
2050.295698850121
 20
1976.328571428572
 30
0.0
 40
30.0
  1
部品名
  7
明朝
 72
     4
 11
2116.124270278692
 21
1991.5
 31
0.0
100
AcDbText
  0
TEXT
  5
1402
330
1F
100
AcDbEntity
  8
補助
100
AcDbText
 10
2627.614285714286
 20
1976.071428571429
 30
0.0
 40
30.0
  1
厚さ
  7
明朝
 72
     4
 11
2671.5
 21
1991.5
 31
0.0
100
AcDbText
  0
LINE
  5
1403
330
1F
100
AcDbEntity
  8
補助
100
AcDbLine
 10
2559.0
 20
1894.0
 30
0.0
 11
2559.0
 21
2024.0
 31
0.0
  0
TEXT
  5
1404
330
1F
100
AcDbEntity
  8
補助
100
AcDbText
 10
2338.490869919937
 20
1975.947979478155
 30
0.0
 40
30.0
  1
材質
  7
明朝
 72
     4
 11
2382.376584205651
 21
1991.119408049583
 31
0.0
100
AcDbText
  0
TEXT
  5
1405
330
1F
100
AcDbEntity
  8
実形
100
AcDbText
 10
2048.227810657788
 20
1910.557142857143
 30
0.0
 40
30.0
  1
ボウル
  7
明朝
 72
     4
 11
2114.056382086359
 21
1926.5
 31
0.0
100
AcDbText
  0
TEXT
  5
1406
330
1F
100
AcDbEntity
  8
実形
100
AcDbText
 10
2594.700000000001
 20
1911.842857142857
 30
0.0
 40
30.0
  1
0.7ｍｍ
  7
明朝
 72
     4
 11
2671.500000000001
 21
1926.5
 31
0.0
100
AcDbText
  0
TEXT
  5
1407
330
1F
100
AcDbEntity
  8
実形
100
AcDbText
 10
2261.016869107866
 20
1910.728571428572
 30
0.0
 40
30.0
  1
SUS304（BA）
  7
明朝
 72
     4
 11
2392.674011965008
 21
1926.5
 31
0.0
100
AcDbText
  0
VIEWPORT
  5
2E
102
{ACAD_XDICTIONARY
360
144D
102
}
330
1B
100
AcDbEntity
 67
     1
  8
0
100
AcDbViewport
 10
144.7270812988281
 20
101.2295806407928
 30
0.0
 40
411.6736216682419
 41
222.1517806396485
 68
     1
 69
     1
 12
144.7270812988281
 22
101.2295806407928
 13
0.0
 23
0.0
 14
10.0
 24
10.0
 15
10.0
 25
10.0
 16
0.0
 26
0.0
 36
1.0
 17
0.0
 27
0.0
 37
0.0
 42
50.0
 43
0.0
 44
0.0
 45
222.1517806396485
 50
0.0
 51
0.0
 72
   100
 90
    32800
  1

281
     0
 71
     1
 74
     0
110
0.0
120
0.0
130
0.0
111
1.0
121
0.0
131
0.0
112
0.0
122
1.0
132
0.0
 79
     0
146
0.0
  0
VIEWPORT
  5
30
102
{ACAD_XDICTIONARY
360
144F
102
}
330
1B
100
AcDbEntity
 67
     1
  8
0
100
AcDbViewport
 10
139.2237563133239
 20
101.2295821905136
 30
0.0
 40
222.7580101013184
 41
161.9673315048218
 68
     2
 69
     2
 12
210.0
 22
148.5
 13
0.0
 23
0.0
 14
10.0
 24
10.0
 15
10.0
 25
10.0
 16
0.0
 26
0.0
 36
1.0
 17
0.0
 27
0.0
 37
0.0
 42
50.0
 43
0.0
 44
0.0
 45
309.0686705647124
 50
0.0
 51
0.0
 72
   100
 90
    32864
  1

281
     0
 71
     1
 74
     0
110
0.0
120
0.0
130
0.0
111
1.0
121
0.0
131
0.0
112
0.0
122
1.0
132
0.0
 79
     0
146
0.0
  0
ENDSEC
  0
SECTION
  2
OBJECTS
  0
DICTIONARY
  5
C
330
0
100
AcDbDictionary
281
     1
  3
ACAD_COLOR
350
11BD
  3
ACAD_GROUP
350
D
  3
ACAD_LAYOUT
350
1A
  3
ACAD_MATERIAL
350
11BC
  3
ACAD_MLINESTYLE
350
17
  3
ACAD_PLOTSETTINGS
350
19
  3
ACAD_PLOTSTYLENAME
350
E
  3
ACAD_TABLESTYLE
350
11BE
  3
AcadDim
350
124
  3
ACDBHEADERROUNDTRIPXREC
350
1446
  3
AcDbVariableDictionary
350
135B
  3
DWGPROPS
350
1445
  0
DICTIONARY
  5
13A2
330
2
100
AcDbDictionary
280
     1
281
     1
  3
ACAD_LAYERFILTERS
360
13A4
  3
ACAD_LAYERSTATES
360
13A5
  3
ACLYDICTIONARY
360
13A3
  0
DICTIONARY
  5
13DD
330
1F
100
AcDbDictionary
280
     1
281
     1
  3
ACAD_SORTENTS
360
13DE
  0
DICTIONARY
  5
13D1
330
13CF
100
AcDbDictionary
280
     1
281
     1
  3
ACAD_SORTENTS
360
13D2
  0
DICTIONARY
  5
13D8
330
13D6
100
AcDbDictionary
280
     1
281
     1
  3
ACAD_SORTENTS
360
13D9
  0
DICTIONARY
  5
144D
330
2E
100
AcDbDictionary
280
     1
281
     1
  3
ACAD_XREC_ROUNDTRIP
360
144E
  0
DICTIONARY
  5
144F
330
30
100
AcDbDictionary
280
     1
281
     1
  3
ACAD_XREC_ROUNDTRIP
360
1450
  0
DICTIONARY
  5
11BD
102
{ACAD_REACTORS
330
C
102
}
330
C
100
AcDbDictionary
281
     1
  0
DICTIONARY
  5
D
102
{ACAD_REACTORS
330
C
102
}
330
C
100
AcDbDictionary
281
     1
  0
DICTIONARY
  5
1A
102
{ACAD_REACTORS
330
C
102
}
330
C
100
AcDbDictionary
281
     1
  3
Model
350
22
  3
ﾚｲｱｳﾄ1
350
1E
  3
ﾚｲｱｳﾄ2
350
26
  0
DICTIONARY
  5
11BC
102
{ACAD_REACTORS
330
C
102
}
330
C
100
AcDbDictionary
281
     1
  0
DICTIONARY
  5
17
102
{ACAD_REACTORS
330
C
102
}
330
C
100
AcDbDictionary
281
     1
  3
Standard
350
18
  0
DICTIONARY
  5
19
102
{ACAD_REACTORS
330
C
102
}
330
C
100
AcDbDictionary
281
     1
  0
ACDBDICTIONARYWDFLT
  5
E
102
{ACAD_REACTORS
330
C
102
}
330
C
100
AcDbDictionary
281
     1
  3
Normal
350
F
100
AcDbDictionaryWithDefault
340
F
  0
DICTIONARY
  5
11BE
102
{ACAD_REACTORS
330
C
102
}
330
C
100
AcDbDictionary
281
     1
  3
Standard
350
11BF
  0
XRECORD
  5
124
102
{ACAD_REACTORS
330
C
102
}
330
C
100
AcDbXrecord
280
     1
 90
   990106
  3

 60
     0
 61
     0
 62
     1
 63
     3
 64
     0
 65
     0
 66
     0
 67
     3
 68
     1
 69
     0
 70
     0
 71
     0
 72
     0
 40
30.0
170
     0
  0
DICTIONARY
  5
1446
102
{ACAD_REACTORS
330
C
102
}
330
C
100
AcDbDictionary
281
     1
  0
DICTIONARY
  5
135B
102
{ACAD_REACTORS
330
C
102
}
330
C
100
AcDbDictionary
281
     1
  3
CTABLESTYLE
350
135C
  3
DIMASSOC
350
1442
  3
PROJECTNAME
350
1443
  0
XRECORD
  5
1445
102
{ACAD_REACTORS
330
C
102
}
330
C
100
AcDbXrecord
280
     1
  1
DWGPROPS COOKIE
  2

  3

  4

  6

  7

  8

  9

300
=
301
=
302
=
303
=
304
=
305
=
306
=
307
=
308
=
309
=
 40
0.6470032986111112
 41
2451673.575802199
 42
2458807.487667986
  1

 90
        0
  0
DICTIONARY
  5
13A4
102
{ACAD_REACTORS
330
13A2
102
}
330
13A2
100
AcDbDictionary
281
     1
  0
DICTIONARY
  5
13A5
102
{ACAD_REACTORS
330
13A2
102
}
330
13A2
100
AcDbDictionary
281
     1
  0
DICTIONARY
  5
13A3
102
{ACAD_REACTORS
330
13A2
102
}
330
13A2
100
AcDbDictionary
281
     1
1001
ACAD
1000
<All
  0
SORTENTSTABLE
  5
13DE
102
{ACAD_REACTORS
330
13DD
102
}
330
13DD
100
AcDbSortentsTable
330
1F
331
44B
  5
458
331
1060
  5
109B
331
7D1
  5
7D2
331
1267
  5
1268
331
3DC
  5
3E9
331
2E6
  5
2EB
331
8C9
  5
F27
331
126F
  5
1270
331
2EE
  5
2F9
331
A5
  5
2E6
331
129B
  5
129C
331
2FE
  5
301
331
306
  5
307
331
395
  5
397
331
1188
  5
1189
331
F31
  5
F32
331
4A3
  5
4F8
331
1190
  5
1191
331
43C
  5
43D
331
1059
  5
105B
331
1198
  5
1199
331
7D2
  5
7D3
331
10A1
  5
10A2
331
1268
  5
1269
331
129C
  5
13AD
331
1189
  5
118A
331
F2A
  5
F2B
331
307
  5
308
331
494
  5
495
331
1191
  5
1192
331
F32
  5
F33
331
1199
  5
119A
331
43D
  5
44B
331
7D3
  5
8C9
331
3CE
  5
3DC
331
1269
  5
126A
331
10A2
  5
10A3
331
1295
  5
1296
331
118A
  5
118B
331
495
  5
4A3
331
308
  5
309
331
397
  5
398
331
3F6
  5
43C
331
F2B
  5
F2C
331
F33
  5
1058
331
1192
  5
1193
331
119A
  5
119B
331
3AF
  5
3B1
331
105B
  5
105C
331
1262
  5
1263
331
368
  5
395
331
505
  5
569
331
109B
  5
109C
331
10A3
  5
10A4
331
126A
  5
126B
331
A0
  5
A5
331
1296
  5
1297
331
2F9
  5
2FA
331
301
  5
306
331
118B
  5
118C
331
398
  5
3AF
331
309
  5
30A
331
F2C
  5
F2E
331
1193
  5
1194
331
119B
  5
119C
331
105C
  5
105D
331
1263
  5
1264
331
109C
  5
109D
331
126B
  5
126C
331
10A4
  5
10A5
331
1297
  5
1298
331
2FA
  5
2FB
331
1184
  5
1185
331
30A
  5
30B
331
118C
  5
118D
331
33A
  5
33B
331
1194
  5
1195
331
119C
  5
119D
331
105D
  5
105E
331
3B1
  5
3CE
331
1264
  5
1265
331
458
  5
494
331
109D
  5
109E
331
126C
  5
126D
331
2EB
  5
2EE
331
10A5
  5
10A7
331
1270
  5
1271
331
1298
  5
1299
331
13DC
  5
A0
331
3E9
  5
3F6
331
2FB
  5
2FE
331
1185
  5
1186
331
118D
  5
118E
331
57F
  5
7CF
331
30B
  5
33A
331
F2E
  5
F2F
331
33B
  5
33C
331
1195
  5
1196
331
105E
  5
105F
331
119D
  5
119E
331
35B
  5
368
331
4F8
  5
505
331
7CF
  5
7D0
331
1265
  5
1266
331
109E
  5
109F
331
126D
  5
126E
331
1271
  5
1295
331
1299
  5
129A
331
1186
  5
1187
331
F27
  5
F2A
331
F2F
  5
F30
331
118E
  5
118F
331
33C
  5
33D
331
1196
  5
1197
331
119E
  5
119F
331
105F
  5
1060
331
7D0
  5
7D1
331
109F
  5
10A1
331
1266
  5
1267
331
126E
  5
126F
331
10A7
  5
1184
331
569
  5
57F
331
9C
  5
9C
331
129A
  5
129B
331
1187
  5
1188
331
118F
  5
1190
331
F30
  5
F31
331
1197
  5
1198
331
33D
  5
35B
331
1058
  5
1059
331
119F
  5
1262
  0
SORTENTSTABLE
  5
13D2
102
{ACAD_REACTORS
330
13D1
102
}
330
13D1
100
AcDbSortentsTable
330
13CF
  0
SORTENTSTABLE
  5
13D9
102
{ACAD_REACTORS
330
13D8
102
}
330
13D8
100
AcDbSortentsTable
330
13D6
  0
XRECORD
  5
144E
102
{ACAD_REACTORS
330
144D
102
}
330
144D
100
AcDbXrecord
280
     1
102
SHADEPLOT
 70
     0
  0
XRECORD
  5
1450
102
{ACAD_REACTORS
330
144F
102
}
330
144F
100
AcDbXrecord
280
     1
102
SHADEPLOT
 70
     0
  0
LAYOUT
  5
22
102
{ACAD_XDICTIONARY
360
1449
102
}
102
{ACAD_REACTORS
330
1A
102
}
330
1A
100
AcDbPlotSettings
  1

  2
EPSON PM-800C
  4
A4
  6

 40
3.757083177566528
 41
14.7637300491333
 42
3.757080078125
 43
3.757080078125
 44
209.9733276367187
 45
296.9683227539062
 46
0.0
 47
0.0
 48
0.0
 49
0.0
140
0.0
141
0.0
142
1.0
143
10.0
 70
 11952
 72
     1
 73
     1
 74
     2
  7

 75
    20
147
0.1
148
0.0
149
0.0
100
AcDbLayout
  1
Model
 70
     1
 71
     0
 10
0.0
 20
0.0
 11
12.0
 21
9.0
 12
0.0
 22
0.0
 32
0.0
 14
0.0
 24
0.0
 34
0.0
 15
0.0
 25
0.0
 35
0.0
146
0.0
 13
0.0
 23
0.0
 33
0.0
 16
1.0
 26
0.0
 36
0.0
 17
0.0
 27
1.0
 37
0.0
 76
     0
330
1F
  0
LAYOUT
  5
1E
102
{ACAD_XDICTIONARY
360
1447
102
}
102
{ACAD_REACTORS
330
1A
102
}
330
1A
100
AcDbPlotSettings
  1

  2
EPSON PM-800C
  4
A4
  6

 40
3.757083177566528
 41
14.7637300491333
 42
3.757080078125
 43
3.757080078125
 44
209.9733276367187
 45
296.9683227539062
 46
0.0
 47
0.0
 48
0.0
 49
0.0
140
0.0
141
0.0
142
1.0
143
1.0
 70
   688
 72
     1
 73
     1
 74
     5
  7

 75
    16
147
1.0
148
0.0
149
0.0
100
AcDbLayout
  1
ﾚｲｱｳﾄ1
 70
     1
 71
     1
 10
-3.757080078125
 20
-3.757083177566528
 11
293.2112426757813
 21
206.2162444591522
 12
0.0
 22
0.0
 32
0.0
 14
27.8447512626648
 24
20.24591643810271
 34
0.0
 15
250.6027613639831
 25
182.2132479429245
 35
0.0
146
0.0
 13
0.0
 23
0.0
 33
0.0
 16
1.0
 26
0.0
 36
0.0
 17
0.0
 27
1.0
 37
0.0
 76
     0
330
1B
331
2E
  0
LAYOUT
  5
26
102
{ACAD_XDICTIONARY
360
144B
102
}
102
{ACAD_REACTORS
330
1A
102
}
330
1A
100
AcDbPlotSettings
  1

  2
EPSON PM-800C
  4

  6

 40
0.0
 41
0.0
 42
0.0
 43
0.0
 44
0.0
 45
0.0
 46
0.0
 47
0.0
 48
0.0
 49
0.0
140
0.0
141
0.0
142
1.0
143
1.0
 70
   688
 72
     0
 73
     0
 74
     5
  7

 75
    16
147
1.0
148
0.0
149
0.0
100
AcDbLayout
  1
ﾚｲｱｳﾄ2
 70
     1
 71
     2
 10
0.0
 20
0.0
 11
12.0
 21
9.0
 12
0.0
 22
0.0
 32
0.0
 14
0.0
 24
0.0
 34
0.0
 15
0.0
 25
0.0
 35
0.0
146
0.0
 13
0.0
 23
0.0
 33
0.0
 16
1.0
 26
0.0
 36
0.0
 17
0.0
 27
1.0
 37
0.0
 76
     0
330
23
  0
MLINESTYLE
  5
18
102
{ACAD_REACTORS
330
17
102
}
330
17
100
AcDbMlineStyle
  2
STANDARD
 70
     0
  3

 62
   256
 51
90.0
 52
90.0
 71
     2
 49
0.5
 62
   256
  6
BYLAYER
 49
-0.5
 62
   256
  6
BYLAYER
  0
ACDBPLACEHOLDER
  5
F
102
{ACAD_REACTORS
330
E
102
}
330
E
  0
TABLESTYLE
  5
11BF
102
{ACAD_REACTORS
330
11BE
102
}
330
11BE
100
AcDbTableStyle
  3
Standard
 70
     0
 71
     0
 40
1.5
 41
1.5
280
     0
281
     0
  7
Standard
140
4.5
170
     2
 62
     0
 63
     7
283
     0
274
    -2
284
     1
 64
     0
275
    -2
285
     1
 65
     0
276
    -2
286
     1
 66
     0
277
    -2
287
     1
 67
     0
278
    -2
288
     1
 68
     0
279
    -2
289
     1
 69
     0
  7
Standard
140
6.0
170
     5
 62
     0
 63
     7
283
     0
274
    -2
284
     1
 64
     0
275
    -2
285
     1
 65
     0
276
    -2
286
     1
 66
     0
277
    -2
287
     1
 67
     0
278
    -2
288
     1
 68
     0
279
    -2
289
     1
 69
     0
  7
Standard
140
4.5
170
     5
 62
     0
 63
     7
283
     0
274
    -2
284
     1
 64
     0
275
    -2
285
     1
 65
     0
276
    -2
286
     1
 66
     0
277
    -2
287
     1
 67
     0
278
    -2
288
     1
 68
     0
279
    -2
289
     1
 69
     0
  0
DICTIONARYVAR
  5
135C
102
{ACAD_REACTORS
330
135B
102
}
330
135B
100
DictionaryVariables
280
     0
  1
STANDARD
  0
DICTIONARYVAR
  5
1442
102
{ACAD_REACTORS
330
135B
102
}
330
135B
100
DictionaryVariables
280
     0
  1
1
  0
DICTIONARYVAR
  5
1443
102
{ACAD_REACTORS
330
135B
102
}
330
135B
100
DictionaryVariables
280
     0
  1

  0
DICTIONARY
  5
1449
330
22
100
AcDbDictionary
280
     1
281
     1
  3
ACAD_XREC_ROUNDTRIP
360
144A
  0
DICTIONARY
  5
1447
330
1E
100
AcDbDictionary
280
     1
281
     1
  3
ACAD_XREC_ROUNDTRIP
360
1448
  0
DICTIONARY
  5
144B
330
26
100
AcDbDictionary
280
     1
281
     1
  3
ACAD_XREC_ROUNDTRIP
360
144C
  0
XRECORD
  5
144A
102
{ACAD_REACTORS
330
1449
102
}
330
1449
100
AcDbXrecord
280
     1
102
SHADEPLOT
 70
     0
102
SHADEPLOTRESLEVEL
 70
     2
102
SHADEPLOTCUSTOMDPI
 70
   300
  0
XRECORD
  5
1448
102
{ACAD_REACTORS
330
1447
102
}
330
1447
100
AcDbXrecord
280
     1
102
SHADEPLOT
 70
     0
102
SHADEPLOTRESLEVEL
 70
     2
102
SHADEPLOTCUSTOMDPI
 70
   300
  0
XRECORD
  5
144C
102
{ACAD_REACTORS
330
144B
102
}
330
144B
100
AcDbXrecord
280
     1
102
SHADEPLOT
 70
     0
102
SHADEPLOTRESLEVEL
 70
     2
102
SHADEPLOTCUSTOMDPI
 70
   300
  0
ENDSEC
  0
EOF
